Tags
Language
Tags

Travelers S02E08

Posted By: Tavaz
1080p (FullHD) / WEB-DL IMDb
Travelers S02E08

Travelers S02E08
WEB-DL | MKV | 1440x960 | English | H264 @ 4544 kbps | AC-3 @ 384 kbps | 44 min 30 s | 1.53 GiB
Subtitles: English
Genre: Drama

Hundreds of years from now, the last surviving humans discover the means of sending consciousness back through time, directly into people in the 21st century. These "travelers" assume the lives of seemingly random people, while secretly working as teams to perform missions in order to save humanity from a terrible future.

659758c6948046f891756e70bf029717.mkv (1.5 GB)



General
Complete name : ./659758c6948046f891756e70bf029717.mkv
Format : Matroska
Format version : Version 4 / Version 2
File size : 1.53 GiB
Duration : 44 min 30 s
Overall bit rate : 4 930 kb/s
Encoded date : UTC 2017-12-05 16:10:22
Writing application : mkvmerge v18.0.0 ('Apricity') 64-bit
Writing library : libebml v1.3.5 + libmatroska v1.4.8

Video
ID : 1
Format : AVC
Format/Info : Advanced Video Codec
Format profile : High@L4
Format settings : CABAC / 5 Ref Frames
Format settings, CABAC : Yes
Format settings, RefFrames : 5 frames
Codec ID : V_MPEG4/ISO/AVC
Duration : 44 min 30 s
Bit rate : 4 544 kb/s
Width : 1 440 pixels
Height : 960 pixels
Display aspect ratio : 2.000
Frame rate mode : Constant
Frame rate : 29.970 (29970/1000) FPS
Color space : YUV
Chroma subsampling : 4:2:0
Bit depth : 8 bits
Scan type : Progressive
Bits/(Pixel*Frame) : 0.110
Stream size : 1.41 GiB (92%)
Language : English
Default : Yes
Forced : No
Color range : Limited
Color primaries : BT.709
Transfer characteristics : BT.709
Matrix coefficients : BT.709

Audio
ID : 2
Format : AC-3
Format/Info : Audio Coding 3
Format settings, Endianness : Big
Codec ID : A_AC3
Duration : 44 min 30 s
Bit rate mode : Constant
Bit rate : 384 kb/s
Channel(s) : 6 channels
Channel positions : Front: L C R, Side: L R, LFE
Sampling rate : 48.0 kHz
Frame rate : 31.250 FPS (1536 SPF)
Bit depth : 16 bits
Compression mode : Lossy
Delay relative to video : -33 ms
Stream size : 122 MiB (8%)
Language : English
Service kind : Complete Main
Default : Yes
Forced : No

Text
ID : 3
Format : UTF-8
Codec ID : S_TEXT/UTF8
Codec ID/Info : UTF-8 Plain Text
Duration : 44 min 3 s
Bit rate : 108 b/s
Count of elements : 949
Stream size : 35.2 KiB (0%)
Language : English
Default : No
Forced : No





Travelers S02E08


Travelers S02E08


Travelers S02E08


Travelers S02E08


Travelers S02E08

All episodes