Tags
Language
Tags

Travelers S02E03 (2017)

Posted By: JohnSmith
1080p (FullHD) / WEB-DL IMDb
Travelers S02E03 (2017)

Travelers S02E03 (2017)
WEB-DL 1080p | MKV / AVC@4560 kb/s | 1920@1440x960 | 44mn | 1.54 GB
English: AC3, 384 kb/s (6 ch) | Subtitles: English
Genre: Sci-Fi

Hundreds of years from now, surviving humans discover how to send consciousness back through time, into people of the 21st century, while attempting to save humanity from a terrible future.

IMDB - 1 win.



General
Unique ID : 238392511534323928737803377460308098910 (0xB358BA472668C861A8CA51AAEC1C3F5E)
Complete name : D:\Downloads\Travelers.S02E03.1080p.WEB-DL.DD5.1.H264-ViSUM[rarbg]\Travelers.S02E03.1080p.WEB-DL.DD5.1.H264-ViSUM.mkv
Format : Matroska
Format version : Version 4 / Version 2
File size : 1.54 GiB
Duration : 44 min 29 s
Overall bit rate : 4 946 kb/s
Encoded date : UTC 2017-10-31 08:46:57
Writing application : mkvmerge v17.0.0 ('Be Ur Friend') 64-bit
Writing library : libebml v1.3.5 + libmatroska v1.4.8
Cover : Yes
Attachments : small_cover.jpg / cover.jpg / cover_land.jpg / small_cover_land.jpg

Video
ID : 1
Format : AVC
Format/Info : Advanced Video Codec
Format profile : High@L4
Format settings, CABAC : Yes
Format settings, ReFrames : 5 frames
Codec ID : V_MPEG4/ISO/AVC
Duration : 44 min 29 s
Bit rate : 4 559 kb/s
Width : 1 440 pixels
Height : 960 pixels
Display aspect ratio : 2.000
Frame rate mode : Constant
Frame rate : 29.970 (29970/1000) FPS
Color space : YUV
Chroma subsampling : 4:2:0
Bit depth : 8 bits
Scan type : Progressive
Bits/(Pixel*Frame) : 0.110
Stream size : 1.42 GiB (92%)
Language : English
Default : Yes
Forced : No
Color range : Limited
Color primaries : BT.709
Transfer characteristics : BT.709
Matrix coefficients : BT.709

Audio
ID : 2
Format : AC-3
Format/Info : Audio Coding 3
Format settings, Endianness : Big
Codec ID : A_AC3
Duration : 44 min 29 s
Bit rate mode : Constant
Bit rate : 384 kb/s
Channel(s) : 6 channels
Channel positions : Front: L C R, Side: L R, LFE
Sampling rate : 48.0 kHz
Frame rate : 31.250 FPS (1536 spf)
Bit depth : 16 bits
Compression mode : Lossy
Delay relative to video : -33 ms
Stream size : 122 MiB (8%)
Language : English
Service kind : Complete Main
Default : Yes
Forced : No

Text
ID : 3
Format : UTF-8
Codec ID : S_TEXT/UTF8
Codec ID/Info : UTF-8 Plain Text
Duration : 44 min 0 s
Bit rate : 105 b/s
Count of elements : 949
Stream size : 33.9 KiB (0%)
Language : English
Default : No
Forced : No




Screenshots

Travelers S02E03 (2017)

Travelers S02E03 (2017)

Travelers S02E03 (2017)

All episodes