Tags
Language
Tags

Travelers S02E08 (2017)

Posted By: JohnSmith
720p (HD) / WEB-DL IMDb
Travelers S02E08 (2017)

Travelers S02E08 (2017)
WEB-DL 720p | MKV / AVC@440 kb/s | 1280@960x640 | 44mn | 1.38 GB
English: AC3, 384 kb/s (6 ch) | Subtitles: English
Genre: Sci-Fi

Hundreds of years from now, surviving humans discover how to send consciousness back through time, into people of the 21st century, while attempting to save humanity from a terrible future.

IMDB - 1 win.



General
Unique ID : 193803684663881274463655447788146473278 (0x91CD3B61E7E720C5BEF98FD35365393E)
Complete name : D:\Downloads\Travelers.S02E08.720p.WEB-DL.DD5.1.H264-ViSUM[rarbg]\Travelers.S02E08.720p.WEB-DL.DD5.1.H264-ViSUM.mkv
Format : Matroska
Format version : Version 4 / Version 2
File size : 1.38 GiB
Duration : 44 min 30 s
Overall bit rate : 4 428 kb/s
Encoded date : UTC 2017-12-05 16:42:26
Writing application : mkvmerge v18.0.0 ('Apricity') 64-bit
Writing library : libebml v1.3.5 + libmatroska v1.4.8
Cover : Yes
Attachments : small_cover.jpg / cover.jpg / cover_land.jpg / small_cover_land.jpg

Video
ID : 1
Format : AVC
Format/Info : Advanced Video Codec
Format profile : Main@L3.1
Format settings, CABAC : No
Format settings, ReFrames : 2 frames
Codec ID : V_MPEG4/ISO/AVC
Duration : 44 min 30 s
Bit rate : 4 041 kb/s
Width : 960 pixels
Height : 640 pixels
Display aspect ratio : 2.000
Frame rate mode : Constant
Frame rate : 29.970 (29970/1000) FPS
Color space : YUV
Chroma subsampling : 4:2:0
Bit depth : 8 bits
Scan type : Progressive
Bits/(Pixel*Frame) : 0.219
Stream size : 1.26 GiB (91%)
Language : English
Default : Yes
Forced : No
Color range : Limited
Color primaries : BT.709
Transfer characteristics : BT.709
Matrix coefficients : BT.709

Audio
ID : 2
Format : AC-3
Format/Info : Audio Coding 3
Format settings, Endianness : Big
Codec ID : A_AC3
Duration : 44 min 30 s
Bit rate mode : Constant
Bit rate : 384 kb/s
Channel(s) : 6 channels
Channel positions : Front: L C R, Side: L R, LFE
Sampling rate : 48.0 kHz
Frame rate : 31.250 FPS (1536 spf)
Bit depth : 16 bits
Compression mode : Lossy
Delay relative to video : -33 ms
Stream size : 122 MiB (9%)
Language : English
Service kind : Complete Main
Default : Yes
Forced : No

Text
ID : 3
Format : UTF-8
Codec ID : S_TEXT/UTF8
Codec ID/Info : UTF-8 Plain Text
Duration : 44 min 3 s
Bit rate : 108 b/s
Count of elements : 949
Stream size : 35.2 KiB (0%)
Language : English
Default : No
Forced : No




Screenshots

Travelers S02E08 (2017)

Travelers S02E08 (2017)

Travelers S02E08 (2017)

All episodes