Tags
Language
Tags

BBC - Travels in Euroland (2020)

Posted By: Tutorial
1080p (FullHD) / HDTV
BBC - Travels in Euroland (2020)

BBC - Travels in Euroland (2020)
HDTV | 1920 x 1080 | .MKV/AVC @ 2428 Kbps | 3x~51mn | 3.41 GB
Audio: English AAC 127 Kbps, 2 channels | Subs: English
Genre: Documentary

The former MP heads to Europe to discover how the divisions exposed by Brexit are reflected across the EU, exploring the role that national identity and pride have had to play in fuelling the rise of right-wing populism across the continent.

Part 1: Our Way of Life
Ed begins in the Netherlands, and the fishing towns of Den Helder and Scheveningen, where he meets a veteran fisherman who explains how EU rules and regulations have made the job harder.


Part 2: The People vs the Elites
Ed continues his journey across Europe in Poland and Germany. In Leczna, eastern Poland, he meets coal miners who explain the importance of an industry that is now under threat from the EU. Crossing the border to Germany, Ed heads to Dorfchemnitz, which in the 2017 national election returned the highest vote in the country for the far-right Alternative for Germany party. He also visits Bremen, a city that has felt the impact of Angela Merkel's controversial policy to take on more refugees during the migrant crisis than any other country in Europe.


Part 3: The Haves and Have-Nots
Ed travels to Italy and France, finding out how years of austerity have affected politics across Europe. In Italy, he compares the lives of multimillionaire fashion entrepreneur Valeria Marini, who lives in Italy's wealthiest city, Milan, and a farming family from Calabria, one of the poorest regions. Ed ends his trip in France, where Marine le Pen has increased the vote for her rebranded National Rally party, in part by promising to protect French industry from foreign traders. He meets voters unsure which way to turn and asks what the future holds for European politics.

General
Unique ID : 93120095552922799984819365241479053266 (0x460E472DF44F2666E674EA0DA7693FD2)
Complete name : BBC.Travels.in.Euroland.1of3.mkv
Format : Matroska
Format version : Version 4 / Version 2
File size : 1.04 GiB
Duration : 58 min 27 s
Overall bit rate : 2 557 kb/s
Movie name : Travels in Euroland [MVGroup]
Encoded date : UTC 2020-02-07 13:17:59
Writing application : mkvmerge v43.0.0 ('The Quartermaster') 64-bit
Writing library : libebml v1.3.10 + libmatroska v1.5.2

Video
ID : 1
Format : HEVC
Format/Info : High Efficiency Video Coding
Format profile : Main@L4@Main
Codec ID : V_MPEGH/ISO/HEVC
Duration : 58 min 27 s
Bit rate : 2 428 kb/s
Width : 1 920 pixels
Height : 1 080 pixels
Display aspect ratio : 16:9
Frame rate mode : Constant
Frame rate : 25.000 FPS
Color space : YUV
Chroma subsampling : 4:2:0
Bit depth : 8 bits
Bits/(Pixel*Frame) : 0.047
Stream size : 1 015 MiB (95%)
Writing library : x265 3.2+37-0aa6c346df23:[Windows][MSVC 1924][64 bit] 8bit
Encoding settings : cpuid=1111039 / frame-threads=3 / numa-pools=12 / wpp / no-pmode / no-pme / no-psnr / no-ssim / log-level=2 / input-csp=1 / input-res=1920x1080 / interlace=0 / total-frames=87675 / level-idc=0 / high-tier=1 / uhd-bd=0 / ref=3 / no-allow-non-conformance / no-repeat-headers / annexb / no-aud / no-hrd / info / hash=0 / no-temporal-layers / no-open-gop / min-keyint=25 / keyint=250 / gop-lookahead=12 / bframes=6 / b-adapt=2 / b-pyramid / bframe-bias=0 / rc-lookahead=20 / lookahead-slices=6 / scenecut=40 / hist-scenecut=0 / radl=0 / no-splice / no-intra-refresh / ctu=64 / min-cu-size=8 / no-rect / no-amp / max-tu-size=32 / tu-inter-depth=1 / tu-intra-depth=1 / limit-tu=0 / rdoq-level=0 / dynamic-rd=0.00 / no-ssim-rd / signhide / no-tskip / nr-intra=0 / nr-inter=0 / no-constrained-intra / strong-intra-smoothing / max-merge=3 / limit-refs=1 / no-limit-modes / me=2 / subme=2 / merange=48 / temporal-mvp / no-frame-dup / hme / Level / merange / L0,L1,L2=16,32,48 / weightp / weightb / no-analyze-src-pics / deblock=0:0 / sao / no-sao-non-deblock / rd=3 / selective-sao=4 / early-skip / rskip / no-fast-intra / no-tskip-fast / no-cu-lossless / b-intra / no-splitrd-skip / rdpenalty=0 / psy-rd=2.00 / psy-rdoq=0.00 / no-rd-refine / no-lossless / cbqpoffs=0 / crqpoffs=0 / rc=crf / crf=22.0 / qcomp=0.60 / qpstep=4 / stats-write=0 / stats-read=0 / ipratio=1.40 / pbratio=1.30 / aq-mode=4 / aq-strength=1.00 / cutree / zone-count=0 / no-strict-cbr / qg-size=32 / no-rc-grain / qpmax=69 / qpmin=0 / no-const-vbv / sar=0 / overscan=0 / videoformat=5 / range=0 / colorprim=1 / transfer=1 / colormatrix=1 / chromaloc=0 / display-window=0 / cll=0,0 / min-luma=0 / max-luma=255 / log2-max-poc-lsb=8 / vui-timing-info / vui-hrd-info / slices=1 / no-opt-qp-pps / no-opt-ref-list-length-pps / no-multi-pass-opt-rps / scenecut-bias=0.05 / hist-threshold=0.01 / no-opt-cu-delta-qp / no-aq-motion / no-hdr10 / no-hdr10-opt / no-dhdr10-opt / no-idr-recovery-sei / analysis-reuse-level=0 / analysis-save-reuse-level=0 / analysis-load-reuse-level=0 / scale-factor=0 / refine-intra=0 / refine-inter=0 / refine-mv=1 / refine-ctu-distortion=0 / no-limit-sao / ctu-info=0 / no-lowpass-dct / refine-analysis-type=0 / copy-pic=1 / max-ausize-factor=1.0 / no-dynamic-refine / no-single-sei / no-hevc-aq / no-svt / no-field / qp-adaptation-range=1.00 / no-scenecut-aware-qpconformance-window-offsets / right=0 / bottom=0
Language : English
Default : Yes
Forced : No
Color range : Limited
Color primaries : BT.709
Transfer characteristics : BT.709
Matrix coefficients : BT.709

Audio
ID : 2
Format : AAC
Format/Info : Advanced Audio Codec
Format profile : LC
Codec ID : A_AAC
Duration : 58 min 26 s
Bit rate : 127 kb/s
Channel(s) : 2 channels
Channel positions : Front: L R
Sampling rate : 48.0 kHz
Frame rate : 46.875 FPS (1024 spf)
Compression mode : Lossy
Delay relative to video : 9 ms
Stream size : 53.1 MiB (5%)
Language : English
Default : Yes
Forced : No

Text
ID : 3
Format : UTF-8
Codec ID : S_TEXT/UTF8
Codec ID/Info : UTF-8 Plain Text
Duration : 57 min 56 s
Bit rate : 91 b/s
Count of elements : 1037
Stream size : 39.0 KiB (0%)
Language : English
Default : No
Forced : No
Screenshots

BBC - Travels in Euroland (2020)

BBC - Travels in Euroland (2020)

BBC - Travels in Euroland (2020)

Welcome to my blog - daily update!

BBC - Travels in Euroland (2020)