Travis Scott: Look Mom I Can Fly (2019)

Posted By: Tutorial
720p (HD) / WEBRip IMDb
Travis Scott: Look Mom I Can Fly (2019)

Travis Scott: Look Mom I Can Fly (2019)
WEBRip | 1280 x 720 | .MKV/AVC @ 3000 Kbps | 1 h 25 min | English E-AC-3 640 Kbps, 6 channels | 2.17 GB
Subtitles: English, العربية, Čeština, Dansk, Deutsch, Ελληνικά, Español, Español, Suomi, Français, עברית, Magyar, Bahasa Indonesia, Italiano, Bokmål, Nederlands, Polski, Português, Português, Русский, Svenska, Türkçe
Genre: Documentary, Music

'Travis Scott: Look Mom I Can Fly' traces the Houston rapper's rise to super-stardom, focusing on the months surrounding ASTROWORLD.

General
Unique ID : 114863321736391586605056332206578781951 (0x5669DEFF62F7E41A60E86BF6431ECEFF)
Complete name : Travis.Scott.Look.Mom.I.Can.Fly.2019.720p.mkv
Format : Matroska
Format version : Version 4 / Version 2
File size : 2.17 GiB
Duration : 1 h 25 min
Overall bit rate mode : Variable
Overall bit rate : 3 639 kb/s
Movie name : Travis.Scott.Look.Mom.I.Can.Fly.2019.720p.NF.WEB-DL.DD+5.1.H.264-KHN
Encoded date : UTC 2019-08-28 11:32:42
Writing application : mkvmerge v30.1.0 ('Forever And More') 64-bit
Writing library : libebml v1.3.6 + libmatroska v1.4.9 / Lavf57.72.101

Video
ID : 1
Format : AVC
Format/Info : Advanced Video Codec
Format profile : Main@L3.1
Format settings, CABAC : Yes
Format settings, ReFrames : 3 frames
Codec ID : V_MPEG4/ISO/AVC
Duration : 1 h 25 min
Bit rate mode : Variable
Bit rate : 3 000 kb/s
Maximum bit rate : 4 500 kb/s
Width : 1 280 pixels
Height : 720 pixels
Display aspect ratio : 16:9
Frame rate mode : Constant
Frame rate : 23.976 (24000/1001) FPS
Color space : YUV
Chroma subsampling : 4:2:0
Bit depth : 8 bits
Scan type : Progressive
Bits/(Pixel*Frame) : 0.136
Stream size : 1.78 GiB (82%)
Writing library : x264 core 148 r2715 7e75228
Encoding settings : cabac=1 / ref=3 / deblock=1:0:0 / analyse=0x1:0x111 / me=umh / subme=10 / psy=1 / psy_rd=1.00:0.00 / mixed_ref=1 / me_range=24 / chroma_me=1 / trellis=2 / 8x8dct=0 / cqm=0 / deadzone=21,11 / fast_pskip=1 / chroma_qp_offset=-2 / threads=8 / lookahead_threads=1 / sliced_threads=0 / nr=0 / decimate=1 / interlaced=0 / bluray_compat=0 / stitchable=1 / constrained_intra=0 / bframes=2 / b_pyramid=0 / b_adapt=2 / b_bias=0 / direct=3 / weightb=1 / open_gop=0 / weightp=2 / keyint=250 / keyint_min=23 / scenecut=0 / intra_refresh=0 / rc_lookahead=48 / rc=2pass / mbtree=1 / bitrate=3000 / ratetol=1.0 / qcomp=0.50 / qpmin=6 / qpmax=51 / qpstep=4 / cplxblur=20.0 / qblur=0.5 / vbv_maxrate=4500 / vbv_bufsize=6000 / nal_hrd=vbr / filler=0 / ip_ratio=1.40 / aq=1:1.00
Default : Yes
Forced : No

Audio
ID : 2
Format : E-AC-3
Format/Info : Enhanced Audio Coding 3
Format settings, Endianness : Big
Codec ID : A_EAC3
Duration : 1 h 25 min
Bit rate mode : Constant
Bit rate : 640 kb/s
Channel(s) : 6 channels
Channel positions : Front: L C R, Side: L R, LFE
Sampling rate : 48.0 kHz
Frame rate : 187.500 FPS (256 spf)
Compression mode : Lossy
Stream size : 390 MiB (18%)
Title : English
Language : English
Service kind : Complete Main
Default : Yes
Forced : No

Text #1
ID : 3
Format : UTF-8
Codec ID : S_TEXT/UTF8
Codec ID/Info : UTF-8 Plain Text
Duration : 1 h 24 min
Bit rate : 85 b/s
Count of elements : 1621
Stream size : 53.0 KiB (0%)
Title : English
Language : English
Default : No
Forced : No

Text #2
ID : 4
Format : UTF-8
Codec ID : S_TEXT/UTF8
Codec ID/Info : UTF-8 Plain Text
Duration : 1 h 18 min
Bit rate : 13 b/s
Count of elements : 245
Stream size : 7.94 KiB (0%)
Title : Forced
Language : English
Default : No
Forced : Yes

Text #3
ID : 5
Format : UTF-8
Codec ID : S_TEXT/UTF8
Codec ID/Info : UTF-8 Plain Text
Duration : 1 h 24 min
Bit rate : 52 b/s
Count of elements : 1249
Stream size : 32.6 KiB (0%)
Title : Danish
Language : Danish
Default : No
Forced : No

Text #4
ID : 6
Format : UTF-8
Codec ID : S_TEXT/UTF8
Codec ID/Info : UTF-8 Plain Text
Duration : 1 h 24 min
Bit rate : 67 b/s
Count of elements : 1441
Stream size : 41.6 KiB (0%)
Title : Traditional Chinese
Language : Chinese
Default : No
Forced : No

Text #5
ID : 7
Format : UTF-8
Codec ID : S_TEXT/UTF8
Codec ID/Info : UTF-8 Plain Text
Duration : 1 h 24 min
Bit rate : 48 b/s
Count of elements : 1001
Stream size : 30.2 KiB (0%)
Title : Finnish
Language : Finnish
Default : No
Forced : No

Text #6
ID : 8
Format : UTF-8
Codec ID : S_TEXT/UTF8
Codec ID/Info : UTF-8 Plain Text
Duration : 1 h 24 min
Bit rate : 57 b/s
Count of elements : 1108
Stream size : 35.8 KiB (0%)
Title : Spanish
Language : Spanish
Default : No
Forced : No

Text #7
ID : 9
Format : UTF-8
Codec ID : S_TEXT/UTF8
Codec ID/Info : UTF-8 Plain Text
Duration : 1 h 24 min
Bit rate : 58 b/s
Count of elements : 1350
Stream size : 36.5 KiB (0%)
Title : Simplified Chinese
Language : Chinese
Default : No
Forced : No

Text #8
ID : 10
Format : UTF-8
Codec ID : S_TEXT/UTF8
Codec ID/Info : UTF-8 Plain Text
Duration : 1 h 24 min
Bit rate : 54 b/s
Count of elements : 1326
Stream size : 34.0 KiB (0%)
Title : Turkish
Language : Turkish
Default : No
Forced : No

Text #9
ID : 11
Format : UTF-8
Codec ID : S_TEXT/UTF8
Codec ID/Info : UTF-8 Plain Text
Duration : 1 h 24 min
Bit rate : 65 b/s
Count of elements : 1337
Stream size : 40.4 KiB (0%)
Title : Korean
Language : Korean
Default : No
Forced : No

Text #10
ID : 12
Format : UTF-8
Codec ID : S_TEXT/UTF8
Codec ID/Info : UTF-8 Plain Text
Duration : 1 h 24 min
Bit rate : 53 b/s
Count of elements : 1288
Stream size : 33.4 KiB (0%)
Title : Romanian
Language : Romanian
Default : No
Forced : No

Text #11
ID : 13
Format : UTF-8
Codec ID : S_TEXT/UTF8
Codec ID/Info : UTF-8 Plain Text
Duration : 1 h 24 min
Bit rate : 57 b/s
Count of elements : 1249
Stream size : 35.5 KiB (0%)
Title : Italian
Language : Italian
Default : No
Forced : No

Text #12
ID : 14
Format : UTF-8
Codec ID : S_TEXT/UTF8
Codec ID/Info : UTF-8 Plain Text
Duration : 1 h 24 min
Bit rate : 114 b/s
Count of elements : 1573
Stream size : 71.0 KiB (0%)
Title : Russian
Language : Russian
Default : No
Forced : No

Text #13
ID : 15
Format : UTF-8
Codec ID : S_TEXT/UTF8
Codec ID/Info : UTF-8 Plain Text
Duration : 1 h 24 min
Bit rate : 51 b/s
Count of elements : 1294
Stream size : 32.2 KiB (0%)
Title : Czech
Language : Czech
Default : No
Forced : No

Text #14
ID : 16
Format : UTF-8
Codec ID : S_TEXT/UTF8
Codec ID/Info : UTF-8 Plain Text
Duration : 1 h 24 min
Bit rate : 100 b/s
Count of elements : 1288
Stream size : 62.3 KiB (0%)
Title : Hebrew
Language : Hebrew
Default : No
Forced : No

Text #15
ID : 17
Format : UTF-8
Codec ID : S_TEXT/UTF8
Codec ID/Info : UTF-8 Plain Text
Duration : 1 h 24 min
Bit rate : 162 b/s
Count of elements : 1364
Stream size : 101 KiB (0%)
Title : Thai
Language : Thai
Default : No
Forced : No

Text #16
ID : 18
Format : UTF-8
Codec ID : S_TEXT/UTF8
Codec ID/Info : UTF-8 Plain Text
Duration : 1 h 24 min
Bit rate : 60 b/s
Count of elements : 1258
Stream size : 37.5 KiB (0%)
Title : Japanese
Language : Japanese
Default : No
Forced : No

Text #17
ID : 19
Format : UTF-8
Codec ID : S_TEXT/UTF8
Codec ID/Info : UTF-8 Plain Text
Duration : 1 h 24 min
Bit rate : 69 b/s
Count of elements : 1526
Stream size : 43.3 KiB (0%)
Title : French
Language : French
Default : No
Forced : No

Text #18
ID : 20
Format : UTF-8
Codec ID : S_TEXT/UTF8
Codec ID/Info : UTF-8 Plain Text
Duration : 1 h 24 min
Bit rate : 100 b/s
Count of elements : 1349
Stream size : 62.6 KiB (0%)
Title : Arabic
Language : Arabic
Default : No
Forced : No

Text #19
ID : 21
Format : UTF-8
Codec ID : S_TEXT/UTF8
Codec ID/Info : UTF-8 Plain Text
Duration : 1 h 24 min
Bit rate : 55 b/s
Count of elements : 1245
Stream size : 34.7 KiB (0%)
Title : Norwegian
Language : Norwegian
Default : No
Forced : No

Text #20
ID : 22
Format : UTF-8
Codec ID : S_TEXT/UTF8
Codec ID/Info : UTF-8 Plain Text
Duration : 1 h 24 min
Bit rate : 96 b/s
Count of elements : 1140
Stream size : 60.0 KiB (0%)
Title : Greek
Language : Greek
Default : No
Forced : No

Text #21
ID : 23
Format : UTF-8
Codec ID : S_TEXT/UTF8
Codec ID/Info : UTF-8 Plain Text
Duration : 1 h 24 min
Bit rate : 55 b/s
Count of elements : 1300
Stream size : 34.4 KiB (0%)
Title : Indonesian
Language : Indonesian
Default : No
Forced : No

Text #22
ID : 24
Format : UTF-8
Codec ID : S_TEXT/UTF8
Codec ID/Info : UTF-8 Plain Text
Duration : 1 h 24 min
Bit rate : 48 b/s
Count of elements : 1129
Stream size : 30.0 KiB (0%)
Title : Swedish
Language : Swedish
Default : No
Forced : No

Text #23
ID : 25
Format : UTF-8
Codec ID : S_TEXT/UTF8
Codec ID/Info : UTF-8 Plain Text
Duration : 1 h 24 min
Bit rate : 70 b/s
Count of elements : 1463
Stream size : 43.9 KiB (0%)
Title : Portuguese
Language : Portuguese
Default : No
Forced : No

Text #24
ID : 26
Format : UTF-8
Codec ID : S_TEXT/UTF8
Codec ID/Info : UTF-8 Plain Text
Duration : 1 h 24 min
Bit rate : 55 b/s
Count of elements : 1319
Stream size : 34.6 KiB (0%)
Title : Hungarian
Default : No
Forced : No

Text #25
ID : 27
Format : UTF-8
Codec ID : S_TEXT/UTF8
Codec ID/Info : UTF-8 Plain Text
Duration : 1 h 24 min
Bit rate : 76 b/s
Count of elements : 1341
Stream size : 47.2 KiB (0%)
Title : Vietnamese
Language : Vietnamese
Default : No
Forced : No

Text #26
ID : 28
Format : UTF-8
Codec ID : S_TEXT/UTF8
Codec ID/Info : UTF-8 Plain Text
Duration : 1 h 24 min
Bit rate : 55 b/s
Count of elements : 1334
Stream size : 34.7 KiB (0%)
Title : European Spanish
Language : Spanish
Default : No
Forced : No

Text #27
ID : 29
Format : UTF-8
Codec ID : S_TEXT/UTF8
Codec ID/Info : UTF-8 Plain Text
Duration : 1 h 24 min
Bit rate : 45 b/s
Count of elements : 1100
Stream size : 28.5 KiB (0%)
Title : Polish
Language : Polish
Default : No
Forced : No

Text #28
ID : 30
Format : UTF-8
Codec ID : S_TEXT/UTF8
Codec ID/Info : UTF-8 Plain Text
Duration : 1 h 24 min
Bit rate : 54 b/s
Count of elements : 1294
Stream size : 33.8 KiB (0%)
Title : Brazilian Portuguese
Language : Portuguese
Default : No
Forced : No

Text #29
ID : 31
Format : UTF-8
Codec ID : S_TEXT/UTF8
Codec ID/Info : UTF-8 Plain Text
Duration : 1 h 24 min
Bit rate : 57 b/s
Count of elements : 1244
Stream size : 35.8 KiB (0%)
Title : German
Language : German
Default : No
Forced : No
Screenshots

Travis Scott: Look Mom I Can Fly (2019)

Travis Scott: Look Mom I Can Fly (2019)

Travis Scott: Look Mom I Can Fly (2019)

Welcome to my blog - daily update!

Travis Scott: Look Mom I Can Fly (2019)