Tags
Language
Tags

Corrupt (2015)

Posted By: Tavaz
1080p (FullHD) / WEB-DL IMDb
Corrupt (2015)

Corrupt (2015)
WEB-DL | MKV | 1920x1080 | English | H264 @ 10535 kbps | E-AC-3 @ 224 kbps | 1 h 29 min | 6.90 GiB
Subtitles: English
Genre: Thriller

A district attorney asks a forensic accountant (Nicole de Boer) to investigate the murder of a key witness.

8982d76fe0344744aed2b7426f0de78d.mkv (6.9 GB)



General
Unique ID : 219123269490003411597851637047685056640 (0xA4D99B4B99132E9FAB9D5803F2E88880)
Complete name : ./8982d76fe0344744aed2b7426f0de78d.mkv
Format : Matroska
Format version : Version 4 / Version 2
File size : 6.90 GiB
Duration : 1 h 29 min
Overall bit rate mode : Variable
Overall bit rate : 11.0 Mb/s
Encoded date : UTC 2018-02-23 06:18:58
Writing application : mkvmerge v9.3.1 ('Mask Machine') 64bit
Writing library : libebml v1.3.4 + libmatroska v1.4.5

Video
ID : 1
Format : AVC
Format/Info : Advanced Video Codec
Format profile : High@L4
Format settings : CABAC / 4 Ref Frames
Format settings, CABAC : Yes
Format settings, RefFrames : 4 frames
Codec ID : V_MPEG4/ISO/AVC
Duration : 1 h 29 min
Bit rate mode : Variable
Bit rate : 10.5 Mb/s
Maximum bit rate : 15.0 Mb/s
Width : 1 920 pixels
Height : 1 080 pixels
Display aspect ratio : 16:9
Frame rate mode : Constant
Frame rate : 23.976 (24000/1001) FPS
Color space : YUV
Chroma subsampling : 4:2:0
Bit depth : 8 bits
Scan type : Progressive
Bits/(Pixel*Frame) : 0.212
Stream size : 6.62 GiB (96%)
Language : English
Default : Yes
Forced : No
Color range : Limited
Color primaries : BT.709
Transfer characteristics : BT.709
Matrix coefficients : BT.709

Audio
ID : 2
Format : E-AC-3
Format/Info : Enhanced Audio Coding 3
Format settings, Endianness : Big
Codec ID : A_EAC3
Duration : 1 h 29 min
Bit rate mode : Constant
Bit rate : 224 kb/s
Channel(s) : 2 channels
Channel positions : Front: L R
Sampling rate : 48.0 kHz
Frame rate : 187.500 FPS (256 SPF)
Compression mode : Lossy
Stream size : 144 MiB (2%)
Language : English
Service kind : Complete Main
Default : Yes
Forced : No

Text
ID : 3
Format : UTF-8
Codec ID : S_TEXT/UTF8
Codec ID/Info : UTF-8 Plain Text
Language : English
Default : No
Forced : No





Corrupt (2015)


Corrupt (2015)


Corrupt (2015)


Corrupt (2015)


Corrupt (2015)