Tags
Language
Tags

Sci Ch - Truth Behind the Moon Landing Series 1 Part 5: CIA's Secret Space War (2019)

Posted By: notbanned
720p (HD) / HDTV
Sci Ch - Truth Behind the Moon Landing Series 1 Part 5: CIA's Secret Space War (2019)

Sci Ch - Truth Behind the Moon Landing Series 1 Part 5: CIA's Secret Space War (2019)
HDTV | 1280x720 | .MP4/AVC @ 3200 Kbps | 42 min 29 s | 1.00 GiB
Audio: English AAC 160 kbps, 2 channels | Subs: English
Genre: Documentary

Confidential CIA files reveal a top-secret war for space between the US and the Soviets, and a team of experts investigate if new discoveries about American espionage during the Apollo program provide evidence of a conspiracy.

General
Complete name : Truth.Behind.the.Moon.Landing.Series.1.Part.5.CIAs.Secret.Space.War.720p.mp4
Format : MPEG-4
Format profile : Base Media
Codec ID : isom (isom)
File size : 1.00 GiB
Duration : 42 min 29 s
Overall bit rate mode : Variable
Overall bit rate : 3 376 kb/s

Video
ID : 1
Format : AVC
Format/Info : Advanced Video Codec
Format profile : High@L4.1
Format settings, CABAC : Yes
Format settings, ReFrames : 4 frames
Codec ID : avc1
Codec ID/Info : Advanced Video Coding
Duration : 42 min 29 s
Bit rate : 3 200 kb/s
Maximum bit rate : 13.6 Mb/s
Width : 1 280 pixels
Height : 720 pixels
Display aspect ratio : 16:9
Frame rate mode : Variable
Frame rate : 23.976 (24000/1001) FPS
Minimum frame rate : 23.974 FPS
Maximum frame rate : 23.981 FPS
Color space : YUV
Chroma subsampling : 4:2:0
Bit depth : 8 bits
Scan type : Progressive
Bits/(Pixel*Frame) : 0.145
Stream size : 976 MiB (95%)
Encoding settings : cabac=1 / ref=1 / deblock=1:0:0 / analyse=0x3:0x113 / me=hex / subme=2 / psy=1 / psy_rd=1.00:0.00 / mixed_ref=0 / me_range=16 / chroma_me=1 / trellis=0 / 8x8dct=1 / cqm=0 / deadzone=21,11 / fast_pskip=1 / chroma_qp_offset=0 / threads=6 / lookahead_threads=2 / sliced_threads=0 / nr=0 / decimate=1 / interlaced=0 / bluray_compat=0 / constrained_intra=0 / bframes=3 / b_pyramid=2 / b_adapt=1 / b_bias=0 / direct=1 / weightb=1 / open_gop=0 / weightp=1 / keyint=240 / keyint_min=24 / scenecut=40 / intra_refresh=0 / rc_lookahead=10 / rc=abr / mbtree=1 / bitrate=3200 / ratetol=1.0 / qcomp=0.60 / qpmin=0 / qpmax=69 / qpstep=4 / vbv_maxrate=62500 / vbv_bufsize=78125 / nal_hrd=none / ip_ratio=1.40 / aq=1:1.00
Encoded date : UTC 2019-07-02 05:45:45
Tagged date : UTC 2019-07-02 08:04:11
Color range : Limited
Color primaries : BT.709
Transfer characteristics : BT.709
Matrix coefficients : BT.709

Audio
ID : 2
Format : AAC
Format/Info : Advanced Audio Codec
Format profile : LC
Codec ID : 40
Duration : 42 min 29 s
Bit rate mode : Variable
Bit rate : 160 kb/s
Maximum bit rate : 350 kb/s
Channel(s) : 2 channels
Channel positions : Front: L R
Sampling rate : 48.0 kHz
Frame rate : 46.875 FPS (1024 spf)
Compression mode : Lossy
Language : English
Encoded date : UTC 2019-07-02 08:04:07
Tagged date : UTC 2019-07-02 08:04:11

Text
ID : 3
Format : Timed Text
Codec ID : tx3g
Duration : 42 min 28 s
Bit rate mode : Variable
Bit rate : 155 b/s
Stream size : 48.2 KiB (0%)
Forced : No
Encoded date : UTC 2019-07-02 08:04:11
Tagged date : UTC 2019-07-02 08:04:11


Screenshots:

Sci Ch - Truth Behind the Moon Landing Series 1 Part 5: CIA's Secret Space War (2019)

Sci Ch - Truth Behind the Moon Landing Series 1 Part 5: CIA's Secret Space War (2019)

Sci Ch - Truth Behind the Moon Landing Series 1 Part 5: CIA's Secret Space War (2019)

Sci Ch - Truth Behind the Moon Landing Series 1 Part 5: CIA's Secret Space War (2019)