Tags
Language
Tags

Sci Ch - Truth Behind the Moon Landing Series 1 Part.6: The Hollywood Conspiracy (2019)

Posted By: Tutorial
720p (HD) / HDTV
Sci Ch - Truth Behind the Moon Landing Series 1 Part.6: The Hollywood Conspiracy (2019)

Sci Ch - Truth Behind the Moon Landing Series 1 Part.6: The Hollywood Conspiracy (2019)
HDTV | 1280 x 720 | .MP4/AVC @ 3200 Kbps | 42 min 29 s | 1.00 GB
Audio: English AAC 160 Kbps, 2 channels | Subs: English
Genre: Documentary

Some believe that the moon's waving American flag is the smoking gun that NASA faked the moon landing, and as a team of experts investigate this strange piece of evidence, the trail leads all the way to some of Hollywood's biggest names.
Truth Behind the Moon Landing turns over every stone, tests evidence, and applies scientific reasoning to the most popular conspiracies.

General
Complete name : Truth.Behind.the.Moon.Landing.Series.1.Part.6.The.Hollywood.Conspiracy.mp4
Format : MPEG-4
Format profile : Base Media
Codec ID : isom (isom)
File size : 1.00 GiB
Duration : 42 min 29 s
Overall bit rate mode : Variable
Overall bit rate : 3 376 kb/s
Encoded date : UTC 2019-07-13 08:28:56
Tagged date : UTC 2019-07-13 08:28:56

Video
ID : 1
Format : AVC
Format/Info : Advanced Video Codec
Format profile : High@L4.1
Format settings, CABAC : Yes
Format settings, ReFrames : 4 frames
Codec ID : avc1
Codec ID/Info : Advanced Video Coding
Duration : 42 min 29 s
Bit rate : 3 200 kb/s
Maximum bit rate : 20.7 Mb/s
Width : 1 280 pixels
Height : 720 pixels
Display aspect ratio : 16:9
Frame rate mode : Variable
Frame rate : 23.976 (24000/1001) FPS
Minimum frame rate : 23.974 FPS
Maximum frame rate : 23.981 FPS
Color space : YUV
Chroma subsampling : 4:2:0
Bit depth : 8 bits
Scan type : Progressive
Bits/(Pixel*Frame) : 0.145
Stream size : 976 MiB (95%)
Title : Truth.Behind.the.Moon.Landing.Series.1.Part.6.The.Hollywood.Conspiracy.720p.HDTV.x264.AAC..org.mp4
Writing library : x264 core 130 r2273 b3065e6
Encoding settings : cabac=1 / ref=1 / deblock=1:0:0 / analyse=0x3:0x113 / me=hex / subme=2 / psy=1 / psy_rd=1.00:0.00 / mixed_ref=0 / me_range=16 / chroma_me=1 / trellis=0 / 8x8dct=1 / cqm=0 / deadzone=21,11 / fast_pskip=1 / chroma_qp_offset=0 / threads=6 / lookahead_threads=2 / sliced_threads=0 / nr=0 / decimate=1 / interlaced=0 / bluray_compat=0 / constrained_intra=0 / bframes=3 / b_pyramid=2 / b_adapt=1 / b_bias=0 / direct=1 / weightb=1 / open_gop=0 / weightp=1 / keyint=240 / keyint_min=24 / scenecut=40 / intra_refresh=0 / rc_lookahead=10 / rc=abr / mbtree=1 / bitrate=3200 / ratetol=1.0 / qcomp=0.60 / qpmin=0 / qpmax=69 / qpstep=4 / vbv_maxrate=62500 / vbv_bufsize=78125 / nal_hrd=none / ip_ratio=1.40 / aq=1:1.00
Encoded date : UTC 2019-07-08 22:06:10
Tagged date : UTC 2019-07-13 08:29:26
Color range : Limited
Color primaries : BT.709
Transfer characteristics : BT.709
Matrix coefficients : BT.709

Audio
ID : 2
Format : AAC
Format/Info : Advanced Audio Codec
Format profile : LC
Codec ID : 40
Duration : 42 min 29 s
Bit rate mode : Variable
Bit rate : 160 kb/s
Maximum bit rate : 348 kb/s
Channel(s) : 2 channels
Channel positions : Front: L R
Sampling rate : 48.0 kHz
Frame rate : 46.875 FPS (1024 spf)
Compression mode : Lossy
Stream size : 48.6 MiB (5%)
Title : Truth.Behind.the.Moon.Landing.Series.1.Part.6.The.Hollywood.Conspiracy.720p.HDTV.x264.AAC..org.mp4
Language : English
Encoded date : UTC 2019-07-13 08:29:21
Tagged date : UTC 2019-07-13 08:29:26

Text
ID : 3
Format : Timed Text
Codec ID : tx3g
Duration : 42 min 28 s
Bit rate mode : Variable
Bit rate : 165 b/s
Stream size : 51.2 KiB (0%)
Title : Truth.Behind.the.Moon.Landing.Series.1.Part.6.The.Hollywood.Conspiracy.720p.HDTV.x264.AAC..org.srt
Forced : No
Encoded date : UTC 2019-07-13 08:29:26
Tagged date : UTC 2019-07-13 08:29:26
Screenshots

Sci Ch - Truth Behind the Moon Landing Series 1 Part.6: The Hollywood Conspiracy (2019)

Sci Ch - Truth Behind the Moon Landing Series 1 Part.6: The Hollywood Conspiracy (2019)

Sci Ch - Truth Behind the Moon Landing Series 1 Part.6: The Hollywood Conspiracy (2019)

Welcome to my blog - daily update!