The Twilight Saga: Breaking Dawn - Part 2 (2012)

Posted By: vivid23
The Twilight Saga: Breaking Dawn - Part 2 (2012)

The Twilight Saga: Breaking Dawn - Part 2 (2012)
Bluray-rip 720p | 1280x536 | MKV/x264 @ 5282 Kbps | 115mn | Audio: English DTS 1510 kbps, 6 channels | Subs: None | 5.52 GB
Genre: Adventure | Drama | Fantasy

After the birth of Renesmee, the Cullens gather other vampire clans in order to protect the child from a false allegation that puts the family in front of the Volturi.

More info

Video
ID : 1
Format : AVC
Format/Info : Advanced Video Codec
Format profile : High@L4.1
Format settings, CABAC : Yes
Format settings, ReFrames : 5 frames
Codec ID : V_MPEG4/ISO/AVC
Duration : 1h 55mn
Bit rate : 5 282 Kbps
Width : 1 280 pixels
Height : 536 pixels
Display aspect ratio : 2.35:1
Frame rate : 23.976 fps
Color space : YUV
Chroma subsampling : 4:2:0
Bit depth : 8 bits
Scan type : Progressive
Bits/(Pixel*Frame) : 0.321
Stream size : 4.14 GiB (76%)
Writing library : x264 core 129 r2245 bc13772
Encoding settings : cabac=1 / ref=5 / deblock=1:0:0 / analyse=0x3:0x133 / me=umh / subme=7 / psy=1 / psy_rd=1.00:0.00 / mixed_ref=1 / me_range=16 / chroma_me=1 / trellis=1 / 8x8dct=1 / cqm=0 / deadzone=21,11 / fast_pskip=0 / chroma_qp_offset=-2 / threads=36 / lookahead_threads=6 / sliced_threads=0 / nr=0 / decimate=1 / interlaced=0 / bluray_compat=0 / constrained_intra=0 / bframes=3 / b_pyramid=2 / b_adapt=1 / b_bias=0 / direct=1 / weightb=1 / open_gop=0 / weightp=2 / keyint=250 / keyint_min=23 / scenecut=40 / intra_refresh=0 / rc_lookahead=40 / rc=2pass / mbtree=1 / bitrate=5282 / ratetol=1.0 / qcomp=0.60 / qpmin=0 / qpmax=69 / qpstep=4 / cplxblur=20.0 / qblur=0.5 / ip_ratio=1.40 / aq=1:1.00
Language : English

Audio
ID : 2
Format : DTS
Format/Info : Digital Theater Systems
Codec ID : A_DTS
Duration : 1h 55mn
Bit rate mode : Constant
Bit rate : 1 510 Kbps
Channel(s) : 6 channels
Channel positions : Front: L C R, Side: L R, LFE
Sampling rate : 48.0 KHz
Bit depth : 24 bits
Compression mode : Lossy
Stream size : 1.21 GiB (22%)
Title : DTS
Language : English

Text #1
ID : 3
Format : UTF-8
Codec ID : S_TEXT/UTF8
Codec ID/Info : UTF-8 Plain Text
Title : English (Forced)

Text #2
ID : 4
Format : UTF-8
Codec ID : S_TEXT/UTF8
Codec ID/Info : UTF-8 Plain Text
Title : English
Language : English

Menu
00:00:00.000 : en:00:00:00.000
00:08:04.067 : en:00:08:04.067
00:13:35.398 : en:00:13:35.398
00:18:36.073 : en:00:18:36.073
00:22:11.080 : en:00:22:11.080
00:30:03.343 : en:00:30:03.343
00:38:06.159 : en:00:38:06.159
00:44:23.619 : en:00:44:23.619
00:48:35.830 : en:00:48:35.830
00:52:31.440 : en:00:52:31.440
00:58:11.947 : en:00:58:11.947
01:02:10.352 : en:01:02:10.352
01:08:26.060 : en:01:08:26.060
01:11:38.503 : en:01:11:38.503
01:20:35.456 : en:01:20:35.456
01:24:57.509 : en:01:24:57.509
01:32:17.157 : en:01:32:17.157
01:38:08.966 : en:01:38:08.966


The Twilight Saga: Breaking Dawn - Part 2 (2012)

The Twilight Saga: Breaking Dawn - Part 2 (2012)


Feel free to contact me when links are dead


http://uploaded.net/file/qns3tpyq/tawadsc.part01.rar
http://uploaded.net/file/54jnhy7h/tawadsc.part02.rar
http://uploaded.net/file/fvbtxr78/tawadsc.part03.rar
http://uploaded.net/file/ucsrhmrz/tawadsc.part04.rar
http://uploaded.net/file/yinffvt5/tawadsc.part05.rar
http://uploaded.net/file/no4cj5v5/tawadsc.part06.rar
http://uploaded.net/file/97qcwhsh/tawadsc.part07.rar
http://uploaded.net/file/g35kp577/tawadsc.part08.rar
http://uploaded.net/file/kwf8sy6n/tawadsc.part09.rar
http://uploaded.net/file/mszm4vfv/tawadsc.part10.rar
http://uploaded.net/file/mwf84emy/tawadsc.part11.rar
http://uploaded.net/file/c8qofg0u/tawadsc.part12.rar
http://uploaded.net/file/f3b4g8ci/tawadsc.part13.rar
http://uploaded.net/file/tdy5igfw/tawadsc.part14.rar
http://uploaded.net/file/246s2iyh/tawadsc.part15.rar
http://uploaded.net/file/6nth4mz2/tawadsc.part16.rar
http://uploaded.net/file/xxmlfzdj/tawadsc.part17.rar

http://www.oteupload.com/cp9nz3mvvlhp/tawadsc.part01.rar
http://www.oteupload.com/6dcndq17okuh/tawadsc.part02.rar
http://www.oteupload.com/qce182qkcdb1/tawadsc.part03.rar
http://www.oteupload.com/yc79okhvfoj6/tawadsc.part04.rar
http://www.oteupload.com/gryjzks5yc6o/tawadsc.part05.rar
http://www.oteupload.com/czjl34sd1tmr/tawadsc.part06.rar
http://www.oteupload.com/za9aof8eb923/tawadsc.part07.rar
http://www.oteupload.com/4iwtrli2zg0s/tawadsc.part08.rar
http://www.oteupload.com/u9bkpzd8dhji/tawadsc.part09.rar
http://www.oteupload.com/wmdunz5kv5rn/tawadsc.part10.rar
http://www.oteupload.com/f5437q77g7s0/tawadsc.part11.rar
http://www.oteupload.com/0oq3stz1146v/tawadsc.part12.rar
http://www.oteupload.com/rrzji6s1rlqb/tawadsc.part13.rar
http://www.oteupload.com/hkk4wlzm2qok/tawadsc.part14.rar
http://www.oteupload.com/wbvwvn1a77ts/tawadsc.part15.rar
http://www.oteupload.com/aimt6x6sv5xw/tawadsc.part16.rar
http://www.oteupload.com/ol6sjgtwehym/tawadsc.part17.rar