BBC - Twin Sisters: A World Apart (2015)

Posted By: Tutorial
1080p (FullHD) / HDTV IMDb
BBC - Twin Sisters: A World Apart (2015)

BBC - Twin Sisters: A World Apart (2015)
HDTV | 1920 x 1080 | .MKV/AVC @ 5463 Kbps | 58 min 45 s | 2.32 GB
Audio: English AC-3 192 Kbps, 2 channels | Subs: English
Genre: Documentary

In 2003, two babies were found in a cardboard box in a Chinese village and adopted to two different corners of the world. One of them to a little village in Norway, surrounded by high mountains and deep fjords. The other one to a big city in the USA. The adoptive parents had no idea that there was a twin sister. Their sisterhood was meant to be kept a secret. However, destiny had other plans…

The film tells the remarkable story of the twin sisters through a parallel journey, until they meet again when they are 8 years old in Norway.

Twin Sisters is a powerful human story about sibling love, human dilemma and the game of fate. The film is made by the award-winning director and producer, Mona Friis Bertheussen and her production company Moment Film, based in Norway.

General
Unique ID : 151156371235235242793397193068671518689 (0x71B7A87D7B16BD99895E419A506DC7E1)
Complete name : BBC.Twin.Sisters.A.World.Apart.mkv
Format : Matroska
Format version : Version 4 / Version 2
File size : 2.32 GiB
Duration : 58 min 45 s
Overall bit rate : 5 657 kb/s
Encoded date : UTC 2017-12-22 09:41:57
Writing application : mkvmerge v19.0.0 ('Brave Captain') 64-bit
Writing library : libebml v1.3.5 + libmatroska v1.4.8

Video
ID : 1
Format : AVC
Format/Info : Advanced Video Codec
Format profile : High@L4
Format settings, CABAC : Yes
Format settings, ReFrames : 4 frames
Codec ID : V_MPEG4/ISO/AVC
Duration : 58 min 45 s
Bit rate : 5 463 kb/s
Width : 1 920 pixels
Height : 1 080 pixels
Display aspect ratio : 16:9
Frame rate mode : Constant
Frame rate : 25.000 FPS
Standard : Component
Color space : YUV
Chroma subsampling : 4:2:0
Bit depth : 8 bits
Scan type : MBAFF
Bits/(Pixel*Frame) : 0.105
Stream size : 2.24 GiB (97%)
Default : Yes
Forced : No
Color range : Limited
Color primaries : BT.709
Transfer characteristics : BT.709
Matrix coefficients : BT.709

Audio
ID : 2
Format : AC-3
Format/Info : Audio Coding 3
Format settings, Endianness : Big
Codec ID : A_AC3
Duration : 58 min 45 s
Bit rate mode : Constant
Bit rate : 192 kb/s
Channel(s) : 2 channels
Channel positions : Front: L R
Sampling rate : 48.0 kHz
Frame rate : 31.250 FPS (1536 spf)
Bit depth : 16 bits
Compression mode : Lossy
Stream size : 80.7 MiB (3%)
Language : English
Service kind : Complete Main
Default : Yes
Forced : No

Text
ID : 3
Format : UTF-8
Codec ID : S_TEXT/UTF8
Codec ID/Info : UTF-8 Plain Text
Duration : 58 min 1 s
Bit rate : 30 b/s
Count of elements : 373
Stream size : 13.1 KiB (0%)
Language : English
Default : Yes
Forced : No
Screenshots

BBC - Twin Sisters: A World Apart (2015)

BBC - Twin Sisters: A World Apart (2015)

Welcome to my blog - daily update!

BBC - Twin Sisters: A World Apart (2015)