UKTV - Your Favourite Attenborough Moment (2006)

Posted By: Polik88
UKTV - Your Favourite Attenborough Moment (2006)

UKTV - Your Favourite Attenborough Moment (2006)
English | MP4 | 704x480 | AVC 1474 Kbps 25.000 fps | AC3 128 Kbps 48.0 khz | 1h 7mn | 770 MB
Genre: Documentary

This tribute show counts down the top 20 moments from Sir David Attenborough's many series, according to audience votes. Featuring the clips, comments from selected celebrity admirers and, of course, words from Sir David himself.
General
Complete name : UKTV.Your.Favourite.Attenborough.Moment.mp4
Format : MPEG-4
Format profile : Base Media
Codec ID : isom
File size : 770 MiB
Duration : 1h 7mn
Overall bit rate : 1 604 Kbps
Encoded date : UTC 2013-01-29 10:19:40
Tagged date : UTC 2013-01-29 10:19:40
Writing application : Lavf51.12.1

Video
ID : 1
Format : AVC
Format/Info : Advanced Video Codec
Format profile : High@L3.0
Format settings, CABAC : No
Format settings, ReFrames : 1 frame
Format settings, GOP : M=1, N=12
Codec ID : avc1
Codec ID/Info : Advanced Video Coding
Duration : 1h 7mn
Bit rate : 1 474 Kbps
Width : 704 pixels
Height : 480 pixels
Display aspect ratio : 4:3
Frame rate mode : Constant
Frame rate : 25.000 fps
Standard : NTSC
Color space : YUV
Chroma subsampling : 4:2:0
Bit depth : 8 bits
Scan type : Progressive
Bits/(Pixel*Frame) : 0.174
Stream size : 707 MiB (92%)
Encoded date : UTC 2013-01-29 10:19:40
Tagged date : UTC 2013-01-29 10:19:40

Audio
ID : 2
Format : AC-3
Format/Info : Audio Coding 3
Mode extension : CM (complete main)
Format settings, Endianness : Big
Codec ID : ac-3
Duration : 1h 7mn
Bit rate mode : Constant
Bit rate : 128 Kbps
Channel(s) : 2 channels
Channel positions : Front: L R
Sampling rate : 48.0 KHz
Bit depth : 16 bits
Compression mode : Lossy
Stream size : 61.4 MiB (8%)
Encoded date : UTC 2013-01-29 10:19:40
Tagged date : UTC 2013-01-29 10:19:40

Screenshots

UKTV - Your Favourite Attenborough Moment (2006)

UKTV - Your Favourite Attenborough Moment (2006)

UKTV - Your Favourite Attenborough Moment (2006)

no mirrors please, Follow The Rules
Visit Polik88 Blog Here
no password