Rainbow Media - Ultra Eye: Hong Kong (2004)

Posted By: Tutorial
Rainbow Media - Ultra Eye: Hong Kong (2004)

Rainbow Media - Ultra Eye: Hong Kong (2004)
HDTV | 1280 x 720 | .MKV/AVC @ 3197 Kbps | 54 min 36 s | 1.37 GB
Audio: English AC-3 384 Kbps, 6 channels | Subs: English
Genre: Documentary, Arts

Follow us to the most fashionable cities in the world. Whether it's a visit to international style-maker David Tang's China Club in Hong Kong, a tour of Philippe Starck and Ian Schrager's urban chic Delano hotel in Miami, or a trip through London's Saatchi Gallery, Ultra Eye has it's finger on the pulse of a city's style.
Ultra HD, the first channel devoted to the worlds of fashion, beauty and style in high-definition, produced series of Ultra Eye specials where each episode unveils the culture of a stylish city from its design and arts to cuisine and fashion. The cities focused, in each of the one-hour episodes, were Tokyo, Paris, Hong Kong, London, Marrakech, Singapore, New York and Rio among others.
Ultra Eye invites viewers to jet-set to the style capitals of the world. Each episode discovers the design culture of a new city. Topics covered include fashion, arts, architecture, interior design and the culinary arts. The series helps to define a city's sense of style while bringing viewers a plethora of visually stunning high definition experiences.
In this episode we visit Hong Kong, the style capital of Asia. Tour the world-famous Peninsula Hotel, get a bird's eye view of the ground-breaking architecture and meet the city's ultimate style-maker, David Tang of The China Club and Shanghai Tang.

General
Unique ID : 242133282871190518257013209163454534506 (0xB6292C8B5BC2E580BD7B1B58E0A0D36A)
Complete name : Ultra.Eye.Hong.Kong.mkv
Format : Matroska
Format version : Version 4 / Version 2
File size : 1.37 GiB
Duration : 54 min 36 s
Overall bit rate : 3 583 kb/s
Encoded date : UTC 2017-08-23 11:23:58
Writing application : mkvmerge v14.0.0 ('Flow') 64bit
Writing library : libebml v1.3.4 + libmatroska v1.4.5

Video
ID : 1
Format : AVC
Format/Info : Advanced Video Codec
Format profile : High@L4
Format settings, CABAC : Yes
Format settings, ReFrames : 8 frames
Codec ID : V_MPEG4/ISO/AVC
Duration : 54 min 36 s
Bit rate : 3 197 kb/s
Width : 1 280 pixels
Height : 720 pixels
Display aspect ratio : 16:9
Frame rate mode : Constant
Frame rate : 29.970 (30000/1001) FPS
Color space : YUV
Chroma subsampling : 4:2:0
Bit depth : 8 bits
Scan type : Progressive
Bits/(Pixel*Frame) : 0.116
Stream size : 1.22 GiB (89%)
Writing library : x264 core 107 r1745 4785e8e
Encoding settings : cabac=1 / ref=8 / deblock=1:0:0 / analyse=0x3:0x133 / me=umh / subme=9 / psy=1 / psy_rd=1.00:0.00 / mixed_ref=1 / me_range=16 / chroma_me=1 / trellis=2 / 8x8dct=1 / cqm=0 / deadzone=21,11 / fast_pskip=1 / chroma_qp_offset=-2 / threads=12 / sliced_threads=0 / nr=0 / decimate=1 / interlaced=0 / constrained_intra=0 / bframes=3 / b_pyramid=2 / b_adapt=2 / b_bias=0 / direct=3 / weightb=1 / open_gop=0 / weightp=2 / keyint=250 / keyint_min=25 / scenecut=40 / intra_refresh=0 / rc_lookahead=60 / rc=2pass / mbtree=1 / bitrate=3197 / ratetol=1.0 / qcomp=0.60 / qpmin=10 / qpmax=51 / qpstep=4 / cplxblur=20.0 / qblur=0.5 / ip_ratio=1.40 / aq=1:1.00
Default : Yes
Forced : No

Audio
ID : 2
Format : AC-3
Format/Info : Audio Coding 3
Format settings, Endianness : Big
Codec ID : A_AC3
Duration : 54 min 36 s
Bit rate mode : Constant
Bit rate : 384 kb/s
Channel(s) : 6 channels
Channel positions : Front: L C R, Side: L R, LFE
Sampling rate : 48.0 kHz
Frame rate : 31.250 FPS (1536 spf)
Bit depth : 16 bits
Compression mode : Lossy
Stream size : 150 MiB (11%)
Language : English
Service kind : Complete Main
Default : Yes
Forced : No

Text
ID : 3
Format : UTF-8
Codec ID : S_TEXT/UTF8
Codec ID/Info : UTF-8 Plain Text
Duration : 53 min 52 s
Bit rate : 75 b/s
Count of elements : 594
Stream size : 29.7 KiB (0%)
Language : English
Default : Yes
Forced : No
Screenshots

Rainbow Media - Ultra Eye: Hong Kong (2004)

Rainbow Media - Ultra Eye: Hong Kong (2004)

Welcome to my blog - daily update!

Rainbow Media - Ultra Eye: Hong Kong (2004)