Dance Program / Un Carnet de Bal (1937) [Criterion Collection]

Posted By: RSU75
SD / DVDRip IMDb
Dance Program / Un Carnet de Bal (1937) [Criterion Collection]

Dance Program / Un Carnet de Bal (1937) [Criterion Collection, Eclipse Series 44]
DVDRip | MKV | AVC 720x480, ~ 1.7 Mbps | 2hr 10mn | 1.90 GB
French: Dolby AC3, 1 ch, 384 kbps
Subtitles: English
Genre: Drama
IMDB Rating: 7.5/10 (419 votes)
Criterion.com


Director: Julien Duvivier
Writers: Julien Duvivier, Henri Jeanson
Stars: Marie Bell, Françoise Rosay, Louis Jouvet

A rich widow, nostalgic for the lavish parties of her youth, embarks on a journey to reconnect with the many suitors who once courted her. In doing so, she sets off on a course of discovery, both of herself and of how greatly the world has changed in two decades. Julien Duvivier’s smash hit is a wry, visually inventive tale of romantic pragmatism that deftly combines comedy and drama.


Eclipse Series 44: Julien Duvivier in the Thirties:
- David Golder (Julien Duvivier, 1930)
- Poil de carotte (Julien Duvivier, 1932)
- La tête d’un homme (Julien Duvivier, 1933)
- Un carnet de bal (Julien Duvivier, 1937)




General
Unique ID : 241549460838119628082745048106218729681 (0xB5B8BBE551895D139BA945822546B0D1)
Complete name : M:\UnCarnetDeBal.37.Cr.Dr.Eclipse44\UnCarnetDeBal.37.Cr.Dr.Eclipse44.mkv
Format : Matroska
Format version : Version 4 / Version 2
File size : 1.90 GiB
Duration : 2 h 10 min
Overall bit rate : 2 088 kb/s
Movie name : Release RSU75
Encoded date : UTC 2018-04-11 08:56:32
Writing application : mkvmerge v6.6.0 ('The Edge Of The In Between') built on Dec 1 2013 17:55:00
Writing library : libebml v1.3.0 + libmatroska v1.4.1

Video
ID : 1
Format : AVC
Format/Info : Advanced Video Codec
Format profile : High@L3
Format settings : CABAC / 4 Ref Frames
Format settings, CABAC : Yes
Format settings, RefFrames : 4 frames
Codec ID : V_MPEG4/ISO/AVC
Duration : 2 h 10 min
Bit rate : 1 700 kb/s
Width : 720 pixels
Height : 480 pixels
Display aspect ratio : 4:3
Frame rate mode : Constant
Frame rate : 23.976 (23976/1000) FPS
Color space : YUV
Chroma subsampling : 4:2:0
Bit depth : 8 bits
Scan type : Progressive
Bits/(Pixel*Frame) : 0.205
Stream size : 1.51 GiB (80%)
Writing library : x264 core 144 r2533 c8a773e
Encoding settings : cabac=1 / ref=4 / deblock=1:0:0 / analyse=0x3:0x113 / me=umh / subme=8 / psy=1 / psy_rd=1.00:0.00 / mixed_ref=1 / me_range=24 / chroma_me=1 / trellis=1 / 8x8dct=1 / cqm=0 / deadzone=21,11 / fast_pskip=1 / chroma_qp_offset=-2 / threads=3 / lookahead_threads=1 / sliced_threads=0 / nr=0 / decimate=1 / interlaced=0 / bluray_compat=0 / constrained_intra=0 / bframes=3 / b_pyramid=0 / b_adapt=2 / b_bias=0 / direct=3 / weightb=1 / open_gop=0 / weightp=2 / keyint=250 / keyint_min=25 / scenecut=40 / intra_refresh=0 / rc_lookahead=40 / rc=abr / mbtree=1 / bitrate=1700 / ratetol=1.0 / qcomp=0.60 / qpmin=10 / qpmax=51 / qpstep=4 / ip_ratio=1.41 / aq=1:1.00
Language : English
Default : Yes
Forced : No

Audio
ID : 2
Format : AC-3
Format/Info : Audio Coding 3
Format settings, Endianness : Big
Codec ID : A_AC3
Duration : 2 h 10 min
Bit rate mode : Constant
Bit rate : 384 kb/s
Channel(s) : 1 channel
Channel positions : Front: C
Sampling rate : 48.0 kHz
Frame rate : 31.250 FPS (1536 SPF)
Bit depth : 16 bits
Compression mode : Lossy
Delay relative to video : -42 ms
Stream size : 358 MiB (18%)
Language : French
Service kind : Complete Main
Default : Yes
Forced : No

Text
ID : 3
Format : VobSub
Muxing mode : zlib
Codec ID : S_VOBSUB
Codec ID/Info : Picture based subtitle format used on DVDs
Language : English
Default : Yes
Forced : No

Menu
00:00:00.000 : en:Chapter 01
00:01:56.116 : en:Chapter 02
00:04:30.937 : en:Chapter 03
00:12:06.392 : en:Chapter 04
00:15:29.361 : en:Chapter 05
00:21:59.751 : en:Chapter 06
00:28:58.703 : en:Chapter 07
00:33:20.898 : en:Chapter 08
00:44:47.785 : en:Chapter 09
00:49:03.540 : en:Chapter 10
01:01:23.680 : en:Chapter 11
01:08:06.048 : en:Chapter 12
01:14:07.743 : en:Chapter 13
01:25:46.774 : en:Chapter 14
01:30:38.032 : en:Chapter 15
01:35:46.841 : en:Chapter 16
01:46:16.603 : en:Chapter 17
01:52:08.888 : en:Chapter 18
01:59:07.140 : en:Chapter 19
02:04:51.250 : en:Chapter 20
02:08:31.770 : en:Chapter 21




Screenshots (click to enlarge to original size):

Dance Program / Un Carnet de Bal (1937) [Criterion Collection]

Dance Program / Un Carnet de Bal (1937) [Criterion Collection]

Dance Program / Un Carnet de Bal (1937) [Criterion Collection]


Dance Program / Un Carnet de Bal (1937) [Criterion Collection]



–––––––––––––––––––––––––––––––––––––––-
>>> "Criterion Collection" <<<OR >>> "DVDRip" <<<OR >>> "French" <<<OR >>> "Eclipse Series" <<<
–––––––––––––––––––––––––––––––––––––––-
>>> Visit Blog RSU75 Here <<<
–––––––––––––––––––––––––––––––––––––––-