Une pure affaire (2011)

Posted By: FenixN
Une pure affaire (2011)

Une pure affaire (2011)
DVDRip | AVI / XviD, 1845 kb/s | 688x288 | 01:24:53 | French: AC3, 448 kb/s (6 ch) | 1.37 GB
Genre: Action, Comedy, Crime | France

David Pelame a la quarantaine. Il est marié à Christine depuis assez longtemps pour avoir oublié qu?ils s?aimaient autrefois. Il a deux enfants avec qui la communication se fait de plus en plus rare. Professionnellement, David n?est jamais devenu le grand avocat associé d?un cabinet de renom qu?il rêvait d?être mais plutôt un simple gratte-papier qui excelle dans les tâches les plus rébarbatives.Bref, la vie de David ne fait pas rêver. Si on avait un conseil à lui donner ?? Ce serait qu?il se ressaisisse.C?est ce qu?il va faire, en découvrant, le soir de Noël, une valise pleine de cocaïne et un téléphone croulant sous les appels de clients. David pense alors avoir trouvé le moyen de relancer sa vie.Si on avait un second conseil à donner à David ? ? Ce serait qu?il y réfléchisse à deux fois.

imdb: 5,9/10 (54 votes)

Format : AVI
Format/Info : Audio Video Interleave
File size : 1.37 GiB
Duration : 1h 24mn
Overall bit rate : 2 303 Kbps
Writing application : FairUse Wizard - http://fairusewizard.com
Writing library : The best and REALLY easy backup tool

Video
ID : 0
Format : MPEG-4 Visual
Format profile : Advanced Simple@L5
Format settings, BVOP : 1
Format settings, QPel : No
Format settings, GMC : No warppoints
Format settings, Matrix : Default (MPEG)
Muxing mode : Packed bitstream
Codec ID : XVID
Codec ID/Hint : XviD
Duration : 1h 24mn
Bit rate : 1 845 Kbps
Width : 688 pixels
Height : 288 pixels
Display aspect ratio : 2.35:1
Frame rate : 25.000 fps
Color space : YUV
Chroma subsampling : 4:2:0
Bit depth : 8 bits
Scan type : Progressive
Compression mode : Lossy
Bits/(Pixel*Frame) : 0.372
Stream size : 1.09 GiB (80%)
Writing library : XviD 1.2.1 (UTC 2008-12-04)

Audio
ID : 1
Format : AC-3
Format/Info : Audio Coding 3
Mode extension : CM (complete main)
Codec ID : 2000
Duration : 1h 24mn
Bit rate mode : Constant
Bit rate : 448 Kbps
Channel(s) : 6 channels
Channel positions : Front: L C R, Side: L R, LFE
Sampling rate : 48.0 KHz
Bit depth : 16 bits
Compression mode : Lossy
Stream size : 272 MiB (19%)
Alignment : Split accross interleaves
Interleave, duration : 40 ms (1.00 video frame)
Interleave, preload duration : 500 ms


screenshot
Une pure affaire (2011)

Une pure affaire (2011)

Une pure affaire (2011)

Une pure affaire (2011)


Welcome to the best movies collection (English, German, French language), best software, best eLearning video and many-many more: LINK
Do not forget to check my blog! Updated regularly!