Tags
Language
Tags

Unique Eats - Season 3 (2008)

Posted By: Polik88
Unique Eats - Season 3 (2008)

Unique Eats - Season 3 (2008)
TVRip | English | AVI/XVID 29.970 fps 1066 Kbps | 624x352 | MP3 144 Kbps 48.0 khz | 12x20mn | 12x175 MB
Genre: Cooking

Unique Eats spotlights America's most exciting and revolutionary restaurants. It's the first look and the last word in everything extreme in food today. The locations range from high-end dining rooms to casual neighborhood treasures, and even roving eateries with no permanent addresses. We seek out the most amazing examples of modern dining across America.
General
Complete name : Unique Eats S03E01 - Asian.avi
Format : AVI
Format/Info : Audio Video Interleave
File size : 175 MiB
Duration : 20mn 0s
Overall bit rate mode : Variable
Overall bit rate : 1 221 Kbps
Writing application : VirtualDubMod 1.5.10.2 (build 2540/release)
Writing library : VirtualDub build 32839/release

Video
ID : 0
Format : MPEG-4 Visual
Format profile : Advanced Simple@L5
Format settings, BVOP : 2
Format settings, QPel : No
Format settings, GMC : No warppoints
Format settings, Matrix : Default (H.263)
Codec ID : XVID
Codec ID/Hint : XviD
Duration : 20mn 0s
Bit rate : 1 066 Kbps
Width : 624 pixels
Height : 352 pixels
Display aspect ratio : 16:9
Frame rate : 29.970 fps
Color space : YUV
Chroma subsampling : 4:2:0
Bit depth : 8 bits
Scan type : Progressive
Compression mode : Lossy
Bits/(Pixel*Frame) : 0.162
Stream size : 153 MiB (87%)
Writing library : XviD 1.2.1 (UTC 2008-12-04)

Audio
ID : 1
Format : MPEG Audio
Format version : Version 1
Format profile : Layer 3
Mode : Joint stereo
Mode extension : MS Stereo
Codec ID : 55
Codec ID/Hint : MP3
Duration : 20mn 0s
Bit rate mode : Variable
Bit rate : 144 Kbps
Channel(s) : 2 channels
Sampling rate : 48.0 KHz
Compression mode : Lossy
Stream size : 20.1 MiB (12%)
Alignment : Aligned on interleaves
Interleave, duration : 24 ms (0.72 video frame)
Interleave, preload duration : 516 ms
Writing library : LAME3.98r
Encoding settings : -m j -V 4 -q 2 -lowpass 17.5 –abr 144

Screenshots

Unique Eats - Season 3 (2008)

Unique Eats - Season 3 (2008)

Unique Eats - Season 3 (2008)

no mirrors please, Follow The Rules
Visit Polik88 Blog Here
no password