Upside Down: The Creation Records Story (2010)

Posted By: Tutorial
Upside Down: The Creation Records Story (2010)

Upside Down: The Creation Records Story (2010)
1080p BluRay | 1920 x 1080 | .MP4/AVC @ 2500 Kbps | 1h 40mn | English AAC 224 Kbps, 6 channels | 1.93 GB
720p BluRay | 1280 x 720 | .MP4/AVC @ 1500 Kbps | 1h 40mn | English AAC 224 Kbps, 6 channels | 1.22 GB
Genre: Documentary, Music

The definitive film about Creation Records, one of the world's most successful and colorful independent labels.
Director: Danny O'Connor
Stars: Alan McGee, Bobby Gillespie, Noel Gallagher

More info: IMDB

also You can look my other last: Music-posts

General
Complete name : Upside.Down.The.Creation.Records.Story.2010.1080p.mp4
Format : MPEG-4
Format profile : Base Media
Codec ID : isom
File size : 1.93 GiB
Duration : 1h 40mn
Overall bit rate : 2 731 Kbps
Movie name : Upside.Down.The.Creation.Records.Story.2010.1080p.BluRay.H264.AAC-RARBG
Encoded date : UTC 2017-01-08 22:23:00
Tagged date : UTC 2017-01-08 22:23:00
Writing application : Lavf56.40.101
Comment : Upside.Down.The.Creation.Records.Story.2010.https://icerbox.com/ROo0Gpnb/Upside.Down.The.Creation.Records.Story.2010.1080p.part2.rar
https://icerbox.com/pgJRvPg0/Upside.Down.The.Creation.Records.Story.2010.1080p.part1.rar
y.H264.AAC-RARBG

Video
ID : 1
Format : AVC
Format/Info : Advanced Video Codec
Format profile : High@L4.1
Format settings, CABAC : Yes
Format settings, ReFrames : 4 frames
Codec ID : avc1
Codec ID/Info : Advanced Video Coding
Duration : 1h 40mn
Bit rate : 2 500 Kbps
Width : 1 920 pixels
Height : 1 080 pixels
Display aspect ratio : 16:9
Frame rate mode : Constant
Frame rate : 23.976 fps
Color space : YUV
Chroma subsampling : 4:2:0
Bit depth : 8 bits
Scan type : Progressive
Bits/(Pixel*Frame) : 0.050
Stream size : 1.76 GiB (92%)
Writing library : x264 core 148 r2638M 7599210
Encoding settings : cabac=1 / ref=4 / deblock=1:-1:-1 / analyse=0x3:0x113 / me=umh / subme=9 / psy=1 / psy_rd=1.00:0.15 / mixed_ref=1 / me_range=24 / chroma_me=1 / trellis=2 / 8x8dct=1 / cqm=0 / deadzone=21,11 / fast_pskip=1 / chroma_qp_offset=-3 / threads=32 / lookahead_threads=4 / sliced_threads=0 / nr=0 / decimate=1 / interlaced=0 / bluray_compat=0 / constrained_intra=0 / bframes=3 / b_pyramid=2 / b_adapt=2 / b_bias=0 / direct=3 / weightb=1 / open_gop=0 / weightp=2 / keyint=250 / keyint_min=25 / scenecut=40 / intra_refresh=0 / rc_lookahead=50 / rc=2pass / mbtree=1 / bitrate=2500 / ratetol=1.0 / qcomp=0.60 / qpmin=0 / qpmax=69 / qpstep=4 / cplxblur=20.0 / qblur=0.5 / vbv_maxrate=31250 / vbv_bufsize=31250 / nal_hrd=none / filler=0 / ip_ratio=1.40 / aq=3:1.00
Encoded date : UTC 2017-01-08 22:23:00
Tagged date : UTC 2017-01-08 22:23:00

Audio
ID : 2
Format : AAC
Format/Info : Advanced Audio Codec
Format profile : LC
Codec ID : 40
Duration : 1h 40mn
Bit rate mode : Constant
Bit rate : 224 Kbps
Channel(s) : 6 channels
Channel positions : Front: L C R, Side: L R, LFE
Sampling rate : 48.0 KHz
Compression mode : Lossy
Stream size : 162 MiB (8%)
Language : English
Encoded date : UTC 2017-01-08 22:23:00
Tagged date : UTC 2017-01-08 22:23:00

General
Complete name : Upside.Down.The.Creation.Records.Story.2010.720p.mp4
Format : MPEG-4
Format profile : Base Media
Codec ID : isom
File size : 1.22 GiB
Duration : 1h 40mn
Overall bit rate : 1 731 Kbps
Movie name : Upside.Down.The.Creation.Records.Story.2010.720p.BluRay.H264.AAC-RARBG
Encoded date : UTC 2017-01-08 02:53:40
Tagged date : UTC 2017-01-08 02:53:40
Writing application : Lavf56.40.101
Comment : Upside.Down.The.Creation.Records.Story.2010.720p.BluRay.H264.AAC-RARBG

Video
ID : 1
Format : AVC
Format/Info : Advanced Video Codec
Format profile : High@L4.1
Format settings, CABAC : Yes
Format settings, ReFrames : 4 frames
Codec ID : avc1
Codec ID/Info : Advanced Video Coding
Duration : 1h 40mn
Bit rate : 1 500 Kbps
Width : 1 280 pixels
Height : 720 pixels
Display aspect ratio : 16:9
Frame rate mode : Constant
Frame rate : 23.976 fps
Color space : YUV
Chroma subsampling : 4:2:0
Bit depth : 8 bits
Scan type : Progressive
Bits/(Pixel*Frame) : 0.068
Stream size : 1.06 GiB (87%)
Writing library : x264 core 148 r2638M 7599210
Encoding settings : cabac=1 / ref=4 / deblock=1:-1:-1 / analyse=0x3:0x113 / me=umh / subme=9 / psy=1 / psy_rd=1.00:0.15 / mixed_ref=1 / me_range=24 / chroma_me=1 / trellis=2 / 8x8dct=1 / cqm=0 / deadzone=21,11 / fast_pskip=1 / chroma_qp_offset=-3 / threads=32 / lookahead_threads=4 / sliced_threads=0 / nr=0 / decimate=1 / interlaced=0 / bluray_compat=0 / constrained_intra=0 / bframes=3 / b_pyramid=2 / b_adapt=2 / b_bias=0 / direct=3 / weightb=1 / open_gop=0 / weightp=2 / keyint=250 / keyint_min=25 / scenecut=40 / intra_refresh=0 / rc_lookahead=50 / rc=2pass / mbtree=1 / bitrate=1500 / ratetol=1.0 / qcomp=0.60 / qpmin=0 / qpmax=69 / qpstep=4 / cplxblur=20.0 / qblur=0.5 / vbv_maxrate=31250 / vbv_bufsize=31250 / nal_hrd=none / filler=0 / ip_ratio=1.40 / aq=3:1.00
Encoded date : UTC 2017-01-08 02:53:40
Tagged date : UTC 2017-01-08 02:53:40

Audio
ID : 2
Format : AAC
Format/Info : Advanced Audio Codec
Format profile : LC
Codec ID : 40
Duration : 1h 40mn
Bit rate mode : Constant
Bit rate : 224 Kbps
Channel(s) : 6 channels
Channel positions : Front: L C R, Side: L R, LFE
Sampling rate : 48.0 KHz
Compression mode : Lossy
Stream size : 162 MiB (13%)
Language : English
Encoded date : UTC 2017-01-08 02:53:40
Tagged date : UTC 2017-01-08 02:53:40
Screenshots 1080p BluRay

Upside Down: The Creation Records Story (2010)

Upside Down: The Creation Records Story (2010)

Screenshots 720p BluRay

Upside Down: The Creation Records Story (2010)

Upside Down: The Creation Records Story (2010)

Welcome to my blog - daily update!

Upside Down: The Creation Records Story (2010)