Tags
Language
Tags

Uro (2006)

Posted By: Tavaz
1080p (FullHD) / BDRip IMDb
Uro (2006)

Uro (2006)
BDRip | MKV | 1920x816 | H264 @ 10998 kbps | DTS @ 1509 kbps | 1 h 40 min | 8.74 GiB
Subtitles: Suomi, Nederlands, Svenska, Dansk, English
Genre: Action, Crime

Turning his back on a delinquent past and joining the police force, HP is determined to start doing the right thing. Soon he finds himself trapped in a web of lies, stretching out from both sides of the law. HP soon realizes that his present mission is closely connected to his own past, and that everything he worked so hard to escape from, is coming back to haunt him.

Uro.2006.Norwegian.1080p.BluRay.DTS.X264-NDF.part1.rar (4.6 GB)
Uro.2006.Norwegian.1080p.BluRay.DTS.X264-NDF.part2.rar (4.2 GB)



General
Unique ID : 309255796945884768685516063133883867958 (0xE8A87FFEC6F7B54A83B5140BC366A336)
Complete name : ./Uro.2006.Norwegian.1080p.BluRay.DTS.x264-NDF.mkv
Format : Matroska
Format version : Version 4 / Version 2
File size : 8.74 GiB
Duration : 1 h 40 min
Overall bit rate : 12.5 Mb/s
Encoded date : UTC 2020-03-25 23:48:14
Writing application : mkvmerge v44.0.0 ('Domino') 64-bit
Writing library : libebml v1.3.10 + libmatroska v1.5.2

Video
ID : 1
Format : AVC
Format/Info : Advanced Video Codec
Format profile : High@L4.1
Format settings : CABAC / 5 Ref Frames
Format settings, CABAC : Yes
Format settings, RefFrames : 5 frames
Codec ID : V_MPEG4/ISO/AVC
Duration : 1 h 40 min
Bit rate : 11.0 Mb/s
Width : 1 920 pixels
Height : 816 pixels
Display aspect ratio : 2.35:1
Frame rate mode : Constant
Frame rate : 25.000 FPS
Color space : YUV
Chroma subsampling : 4:2:0
Bit depth : 8 bits
Scan type : Progressive
Bits/(Pixel*Frame) : 0.281
Stream size : 7.68 GiB (88%)
Title : Nordicflix
Writing library : x264 core 92 r1523 25ca5b0
Encoding settings : cabac=1 / ref=5 / deblock=1:0:0 / analyse=0x3:0x133 / me=umh / subme=7 / psy=1 / psy_rd=1.00:0.00 / mixed_ref=1 / me_range=16 / chroma_me=1 / trellis=1 / 8x8dct=1 / cqm=0 / deadzone=21,11 / fast_pskip=0 / chroma_qp_offset=-2 / threads=6 / sliced_threads=0 / nr=0 / decimate=1 / interlaced=0 / constrained_intra=0 / bframes=3 / b_pyramid=2 / b_adapt=1 / b_bias=0 / direct=1 / wpredb=1 / wpredp=2 / keyint=250 / keyint_min=25 / scenecut=40 / intra_refresh=0 / rc_lookahead=40 / rc=2pass / mbtree=1 / bitrate=10998 / ratetol=1.0 / qcomp=0.60 / qpmin=10 / qpmax=51 / qpstep=4 / cplxblur=20.0 / qblur=0.5 / ip_ratio=1.40 / aq=1:1.00
Language : English
Default : Yes
Forced : No

Audio
ID : 2
Format : DTS
Format/Info : Digital Theater Systems
Mode : 16
Format settings, Endianness : Big
Codec ID : A_DTS
Duration : 1 h 40 min
Bit rate mode : Constant
Bit rate : 1 509 kb/s
Channel(s) : 6 channels
Channel positions : Front: L C R, Side: L R, LFE
Sampling rate : 48.0 kHz
Frame rate : 93.750 FPS (512 SPF)
Bit depth : 24 bits
Compression mode : Lossy
Stream size : 1.05 GiB (12%)
Title : 6 ch
Language : Norwegian
Default : Yes
Forced : No

Text #1
ID : 3
Format : UTF-8
Codec ID : S_TEXT/UTF8
Codec ID/Info : UTF-8 Plain Text
Duration : 1 h 34 min
Bit rate : 38 b/s
Count of elements : 686
Stream size : 26.5 KiB (0%)
Language : Norwegian
Default : No
Forced : No

Text #2
ID : 4
Format : UTF-8
Codec ID : S_TEXT/UTF8
Codec ID/Info : UTF-8 Plain Text
Duration : 1 h 38 min
Bit rate : 28 b/s
Count of elements : 573
Stream size : 21.0 KiB (0%)
Language : Danish
Default : No
Forced : No

Text #3
ID : 5
Format : UTF-8
Codec ID : S_TEXT/UTF8
Codec ID/Info : UTF-8 Plain Text
Duration : 1 h 38 min
Bit rate : 31 b/s
Count of elements : 567
Stream size : 22.6 KiB (0%)
Language : Swedish
Default : No
Forced : No

Text #4
ID : 6
Format : UTF-8
Codec ID : S_TEXT/UTF8
Codec ID/Info : UTF-8 Plain Text
Duration : 1 h 38 min
Bit rate : 27 b/s
Count of elements : 582
Stream size : 19.6 KiB (0%)
Language : Finnish
Default : No
Forced : No

Text #5
ID : 7
Format : UTF-8
Codec ID : S_TEXT/UTF8
Codec ID/Info : UTF-8 Plain Text
Duration : 1 h 38 min
Bit rate : 27 b/s
Count of elements : 661
Stream size : 20.0 KiB (0%)
Language : English
Default : No
Forced : No

Text #6
ID : 8
Format : UTF-8
Codec ID : S_TEXT/UTF8
Codec ID/Info : UTF-8 Plain Text
Duration : 1 h 35 min
Bit rate : 32 b/s
Count of elements : 662
Stream size : 23.1 KiB (0%)
Title : by de Nordics 2013
Language : Dutch
Default : Yes
Forced : No





Uro (2006)


Uro (2006)


Uro (2006)


Uro (2006)


Uro (2006)