Tags
Language
Tags

VICE - Battle for Jerusalem And A Face In The Crowd (2018)

Posted By: notbanned
1080p (FullHD) / WEB-DL IMDb
VICE - Battle for Jerusalem And A Face In The Crowd (2018)

VICE - Battle for Jerusalem And A Face In The Crowd (2018)
WEB-DL | 1920x1080 | .MKV/AVC @ 7243 Kbps | 31 min 1 s | 1.62 GiB
Audio: English EAC3 224 kbps, 2 channels | Subs: English
Genre: Documentary

"Battle for Jerusalem" On December 6th, 2017, President Trump declared that the United States would move its embassy to Jerusalem this year, upending decades of international diplomacy and inciting protests and violence across the Palestinian territories. VICE correspondent Gianna Toboni reports on the aftermath of Trump's announcement from the front lines, and speaks with leaders and civilians on all sides of the ongoing Israeli-Palestinian conflict about the imminent consequences of the future move."A Face in the Crowd" As developments in facial recognition technology make rapid advances, Elle Reeve travels to China where companies and the government are rapidly deploying all manner of imaginable applications. VICE investigates the blurry legal boundaries surrounding this technology and the potential it has to change the very nature of policing itself, both in China and in the United States.

General
Unique ID : 174706053784986267154918939930417519091 (0x836F297BC85B23BC01295629377D59F3)
Complete name : VICE.Battle.for.Jerusalem.and.A.Face.In.The.Crowd.1080p.mkv
Format : Matroska
Format version : Version 4 / Version 2
File size : 1.62 GiB
Duration : 31 min 1 s
Overall bit rate mode : Variable
Overall bit rate : 7 469 kb/s

Video
ID : 1
Format : AVC
Format/Info : Advanced Video Codec
Format profile : High@L4
Format settings, CABAC : Yes
Format settings, ReFrames : 4 frames
Codec ID : V_MPEG4/ISO/AVC
Duration : 31 min 1 s
Bit rate mode : Variable
Bit rate : 7 243 kb/s
Maximum bit rate : 15.0 Mb/s
Width : 1 920 pixels
Height : 1 080 pixels
Display aspect ratio : 16:9
Frame rate mode : Constant
Frame rate : 23.976 (24000/1001) FPS
Color space : YUV
Chroma subsampling : 4:2:0
Bit depth : 8 bits
Scan type : Progressive
Bits/(Pixel*Frame) : 0.146
Stream size : 1.57 GiB (97%)
Default : Yes
Forced : No
Color range : Limited
Color primaries : BT.709
Transfer characteristics : BT.709
Matrix coefficients : BT.709

Audio
ID : 2
Format : E-AC-3
Format/Info : Enhanced Audio Coding 3
Format settings, Endianness : Big
Codec ID : A_EAC3
Duration : 31 min 1 s
Bit rate mode : Constant
Bit rate : 224 kb/s
Channel(s) : 2 channels
Channel positions : Front: L R
Sampling rate : 48.0 kHz
Frame rate : 187.500 FPS (256 spf)
Compression mode : Lossy
Stream size : 49.7 MiB (3%)
Language : English
Service kind : Complete Main
Default : Yes
Forced : No

Text
ID : 3
Format : UTF-8
Codec ID : S_TEXT/UTF8
Codec ID/Info : UTF-8 Plain Text
Duration : 30 min 24 s
Bit rate : 83 b/s
Count of elements : 478
Stream size : 18.7 KiB (0%)
Language : English
Default : No
Forced : No


Screenshots:

VICE - Battle for Jerusalem And A Face In The Crowd (2018)

VICE - Battle for Jerusalem And A Face In The Crowd (2018)

VICE - Battle for Jerusalem And A Face In The Crowd (2018)

VICE - Battle for Jerusalem And A Face In The Crowd (2018)

VICE - Battle for Jerusalem And A Face In The Crowd (2018)