Tags
Language
Tags

VICE - The Big Fix and Silicon Valley of India (2018)

Posted By: notbanned
1080p (FullHD) / WEB-DL
VICE - The Big Fix and Silicon Valley of India (2018)

VICE - The Big Fix and Silicon Valley of India (2018)
WEB-DL | 1920x1080 | .MKV/AVC @ 5947 Kbps | 30 min 27 s | 1.31 GiB
Audio: English EAC3 224 kbps, 2 channels | Subs: English
Genre: Documentary

President Trump campaigns heavily on overhauling America's crumbling infrastructure; India's best and brightest tech talents put their entrepreneurial spirit and engineering skills to use in Bangalore.

General
Unique ID : 250089329707029029397905547794999845559 (0xBC2573F04D045FAE8C7C4836FB4EA2B7)
Complete name : VICE.The.Big.Fix.and.Silicon.Valley.of.India.1080p.mkv
Format : Matroska
Format version : Version 4 / Version 2
File size : 1.31 GiB
Duration : 30 min 27 s
Overall bit rate : 6 172 kb/s

Video
ID : 1
Format : AVC
Format/Info : Advanced Video Codec
Format profile : High@L4
Format settings, CABAC : Yes
Format settings, ReFrames : 4 frames
Codec ID : V_MPEG4/ISO/AVC
Duration : 30 min 27 s
Bit rate : 5 947 kb/s
Width : 1 920 pixels
Height : 1 080 pixels
Display aspect ratio : 16:9
Frame rate mode : Constant
Frame rate : 23.976 (24000/1001) FPS
Color space : YUV
Chroma subsampling : 4:2:0
Bit depth : 8 bits
Scan type : Progressive
Bits/(Pixel*Frame) : 0.120
Stream size : 1.27 GiB (96%)
Default : Yes
Forced : No
Color range : Limited
Color primaries : BT.709
Transfer characteristics : BT.709
Matrix coefficients : BT.709

Audio
ID : 2
Format : E-AC-3
Format/Info : Enhanced Audio Coding 3
Format settings, Endianness : Big
Codec ID : A_EAC3
Duration : 30 min 27 s
Bit rate mode : Constant
Bit rate : 224 kb/s
Channel(s) : 2 channels
Channel positions : Front: L R
Sampling rate : 48.0 kHz
Frame rate : 187.500 FPS (256 spf)
Compression mode : Lossy
Stream size : 48.8 MiB (4%)
Language : English
Service kind : Complete Main
Default : Yes
Forced : No

Text
ID : 3
Format : UTF-8
Codec ID : S_TEXT/UTF8
Codec ID/Info : UTF-8 Plain Text
Duration : 29 min 39 s
Bit rate : 133 b/s
Count of elements : 709
Stream size : 29.1 KiB (0%)
Language : English
Default : No
Forced : No


Screenshots:

VICE - The Big Fix and Silicon Valley of India (2018)

VICE - The Big Fix and Silicon Valley of India (2018)

VICE - The Big Fix and Silicon Valley of India (2018)

VICE - The Big Fix and Silicon Valley of India (2018)