Tags
Language
Tags
April 2024
Su Mo Tu We Th Fr Sa
31 1 2 3 4 5 6
7 8 9 10 11 12 13
14 15 16 17 18 19 20
21 22 23 24 25 26 27
28 29 30 1 2 3 4

History Channel - Valkyrie: The Plot to Kill Hitler (2008)

Posted By: Tutorial
720p (HD) / HDTV
History Channel - Valkyrie: The Plot to Kill Hitler (2008)

History Channel - Valkyrie: The Plot to Kill Hitler (2008)
HDTV | 1280 x 720 | .MKV/AVC @ 3091 Kbps | 1 h 29 min | 2.19 GB
Audio: English AC-3 384 Kbps, 2 channels | Subs: None
Genre: Documentary

Created as a companion documentary to the film Valkyrie, this History Channel documentary details the true story behind the plot to assassinate Adolph Hitler.
Written and directed by Kevin Burns ('Batman Unmasked' and 'Star Wars: The Legacy Revealed') and narrated by Robert Clotworthy, this in-depth documentary covers in great detail the rise and fall of Hitler and the Nazi party, many of the failed assassination attempts to take down the Fuhrer including the story of Valkyrie, and gives voice to the spirit of the small but determined band of men whose sense of justice and honor could not be dissolved by the diabolical glamour of the Third Reich.
Was it an act of treason or patriotism? Bold in concept and challenging in execution, learn the real story behind the Valkyrie plot–a plan by a group of German officers to assassinate Adolph Hitler and take control of the government. The events leading up to July 20, 1944 are brought to life through interviews with survivors, relatives, firsthand witnesses and historians. Newsreel footage, archival photographs and re-creations are also included.
Discover what the Valkyrie Legacy means to Germans and Germany, and what it says about the sometimes complex nature of heroism, and the legacy of the Resistance overall.

General
Unique ID : 201501426874094265536349755655569850328 (0x9797C3601D966837AC3E0406036CBFD8)
Complete name : HC.Valkyrie.The.Plot.to.Kill.Hitler.mkv
Format : Matroska
Format version : Version 1
File size : 2.19 GiB
Duration : 1 h 29 min
Overall bit rate : 3 478 kb/s
Encoded date : UTC 2008-11-25 19:37:40
Writing application : mkvmerge v2.2.0 ('Turn It On Again') built on Mar 4 2008 12:58:26
Writing library : libebml v0.7.7 + libmatroska v0.8.1

Video
ID : 1
Format : AVC
Format/Info : Advanced Video Codec
Format profile : High@L3.1
Format settings : CABAC / 3 Ref Frames
Format settings, CABAC : Yes
Format settings, Reference frames : 3 frames
Codec ID : V_MPEG4/ISO/AVC
Duration : 1 h 29 min
Bit rate : 3 091 kb/s
Width : 1 280 pixels
Height : 720 pixels
Display aspect ratio : 16:9
Frame rate mode : Constant
Frame rate : 23.976 (23976/1000) FPS
Color space : YUV
Chroma subsampling : 4:2:0
Bit depth : 8 bits
Scan type : Progressive
Bits/(Pixel*Frame) : 0.140
Stream size : 1.90 GiB (87%)
Writing library : x264 core 65 r1029M cb3c213
Encoding settings : cabac=1 / ref=3 / deblock=1:-2:-1 / analyse=0x3:0x133 / me=hex / subme=6 / psy_rd=1.0:0.0 / mixed_ref=1 / me_range=16 / chroma_me=1 / trellis=2 / 8x8dct=1 / cqm=0 / deadzone=21,11 / chroma_qp_offset=-2 / threads=6 / nr=0 / decimate=0 / mbaff=0 / bframes=3 / b_pyramid=1 / b_adapt=1 / b_bias=100 / direct=1 / wpredb=1 / keyint=250 / keyint_min=25 / scenecut=40(pre) / rc=2pass / bitrate=3091 / ratetol=1.0 / qcomp=0.60 / qpmin=10 / qpmax=51 / qpstep=4 / cplxblur=20.0 / qblur=0.5 / ip_ratio=1.40 / pb_ratio=1.30 / aq=1:1.00
Language : English
Default : Yes
Forced : No

Audio
ID : 2
Format : AC-3
Format/Info : Audio Coding 3
Commercial name : Dolby Digital
Codec ID : A_AC3
Duration : 1 h 29 min
Bit rate mode : Constant
Bit rate : 384 kb/s
Channel(s) : 2 channels
Channel layout : L R
Sampling rate : 48.0 kHz
Frame rate : 31.250 FPS (1536 SPF)
Compression mode : Lossy
Stream size : 247 MiB (11%)
Service kind : Complete Main
Default : Yes
Forced : No
Screenshots

History Channel - Valkyrie: The Plot to Kill Hitler (2008)

History Channel - Valkyrie: The Plot to Kill Hitler (2008)

History Channel - Valkyrie: The Plot to Kill Hitler (2008)

Welcome to my blog - daily update!