Tags
Language
Tags

Venise n'est pas en Italie / Venice Calling (2019)

Posted By: JohnSmith
720p (HD) / BDRip IMDb
Venise n'est pas en Italie / Venice Calling (2019)

Venise n'est pas en Italie / Venice Calling (2019)
BDRip 720p | MKV / AVC@5150 kb/s | 1280x536 | 1h 33mn | Français (VFi): DTS, 1509 kb/s (6 ch) | 4.37 GB
Genre: Comedy | Drama

La famille Chamodot est fantasque et inclassable. Bernard, le père, un peu doux-dingue, fait vivre tout le monde dans une caravane, et la mère, Annie teint les cheveux de son fils Émile en blond, parce que, paraît-il, il est plus beau comme ça !!! Quand Pauline, la fille du lycée dont Émile est amoureux, l’invite à Venise pour les vacances, l’adolescent est fou de joie. Seul problème, et de taille, les parents décident de l’accompagner avec leur caravane, pour un voyage aussi rocambolesque qu’initiatique.


General
Complete name : C:\Venise.N.Est.Pas.En.Italie.2019.FRENCH.720p.BluRay.mkv
Format : Matroska
Format version : Version 2
File size : 4.37 GiB
Duration : 1 h 33 min
Overall bit rate : 6 664 kb/s
Writing application : mkvmerge v6.6.0 ('The Edge Of The In Between') built on Dec 1 2013 17:55:00
Writing library : libebml v1.3.0 + libmatroska v1.4.1

Video
ID : 1
Format : AVC
Format/Info : Advanced Video Codec
Format profile : High@L4.1
Format settings : CABAC / 5 Ref Frames
Format settings, CABAC : Yes
Format settings, Reference : 5 frames
Codec ID : V_MPEG4/ISO/AVC
Duration : 1 h 33 min
Bit rate : 5 153 kb/s
Width : 1 280 pixels
Height : 536 pixels
Display aspect ratio : 2.40:1
Frame rate mode : Constant
Frame rate : 23.976 (24000/1001) FPS
Color space : YUV
Chroma subsampling : 4:2:0
Bit depth : 8 bits
Scan type : Progressive
Bits/(Pixel*Frame) : 0.313
Stream size : 3.29 GiB (75%)
Writing library : x264 core 157 r2969 d4099dd
Encoding settings : cabac=1 / ref=5 / deblock=1:0:0 / analyse=0x3:0x113 / me=umh / subme=8 / psy=1 / psy_rd=1.00:0.00 / mixed_ref=1 / me_range=16 / chroma_me=1 / trellis=1 / 8x8dct=1 / cqm=0 / deadzone=21,11 / fast_pskip=1 / chroma_qp_offset=-2 / threads=17 / lookahead_threads=2 / sliced_threads=0 / nr=0 / decimate=1 / interlaced=0 / bluray_compat=0 / constrained_intra=0 / bframes=3 / b_pyramid=2 / b_adapt=2 / b_bias=0 / direct=3 / weightb=1 / open_gop=0 / weightp=2 / keyint=240 / keyint_min=24 / scenecut=40 / intra_refresh=0 / rc_lookahead=50 / rc=2pass / mbtree=1 / bitrate=5153 / ratetol=1.0 / qcomp=0.60 / qpmin=0 / qpmax=69 / qpstep=4 / cplxblur=20.0 / qblur=0.5 / ip_ratio=1.40 / aq=1:1.00
Language : English
Default : Yes
Forced : No

Audio
ID : 2
Format : DTS
Format/Info : Digital Theater Systems
Codec ID : A_DTS
Duration : 1 h 33 min
Bit rate mode : Constant
Bit rate : 1 509 kb/s
Channel(s) : 6 channels
ChannelLayout_Original : C L R Ls Rs LFE
Sampling rate : 48.0 kHz
Frame rate : 93.750 FPS (512 SPF)
Bit depth : 24 bits
Compression mode : Lossy
Stream size : 1 013 MiB (23%)
Title : French DTS 1509kbps
Language : French
Default : Yes
Forced : No

Menu
00:00:00.000 : en:00:00:00.000
00:10:23.581 : en:00:10:23.581
00:19:33.255 : en:00:19:33.255
00:28:39.259 : en:00:28:39.259
00:37:40.925 : en:00:37:40.925
00:45:53.376 : en:00:45:53.376
00:54:26.096 : en:00:54:26.096
01:02:12.771 : en:01:02:12.771
01:08:39.782 : en:01:08:39.782
01:14:48.567 : en:01:14:48.567
01:22:40.164 : en:01:22:40.164
01:30:20.999 : en:01:30:20.999




Screenshots

Venise n'est pas en Italie / Venice Calling (2019)

Venise n'est pas en Italie / Venice Calling (2019)

Venise n'est pas en Italie / Venice Calling (2019)