Tags
Language
Tags
June 2024
Su Mo Tu We Th Fr Sa
26 27 28 29 30 31 1
2 3 4 5 6 7 8
9 10 11 12 13 14 15
16 17 18 19 20 21 22
23 24 25 26 27 28 29
30 1 2 3 4 5 6

VICE - Heimo's Arctic Refuge (2010)

Posted By: notbanned
720p (HD) / HDTV IMDb
VICE - Heimo's Arctic Refuge (2010)

VICE - Heimo's Arctic Refuge (2010)
HDTV | 1280x720 | .MKV/AVC @ 3175 Kbps | 40 min 57 s | 987 MiB
Audio: English MP2 192 kbps, 2 channels | Subs: English
Genre: Documentary

Heimo Korth has been a trapper for 30 years and he lives completely by his wits with a little assistance from the occasional bush plane. He moved to Alaska when he was 19 to get as far away as possible from human civilization. He met his wife Edna while living in an Eskimo whaling village on St. Lawrence Island in the Bering Sea. Eventually he convinced her to move with him to the harsh Alaskan interior, more than 150 miles above the Arctic Circle and even farther from the nearest roads, supermarket, or schools. Two of last people allowed to live in an area the size of South Carolina. Their nearest neighbor is about 100 miles away, and the only chance of emergency medical care is by calling the Army for a helicopter ride.

General
Unique ID : 335106087096275886174207769024251453367 (0xFC1B15B363B1BB0A78B5AA8A9C8E5FB7)
Complete name : Vice.Essentials.Heimos.Arctic.Refuge.720p.mkv
Format : Matroska
Format version : Version 4 / Version 2
File size : 987 MiB
Duration : 40 min 57 s
Overall bit rate : 3 369 kb/s

Video
ID : 1
Format : AVC
Format/Info : Advanced Video Codec
Format profile : High@L4.1
Format settings, CABAC : Yes
Format settings, ReFrames : 5 frames
Codec ID : V_MPEG4/ISO/AVC
Duration : 40 min 57 s
Bit rate : 3 175 kb/s
Width : 1 280 pixels
Height : 720 pixels
Display aspect ratio : 16:9
Frame rate mode : Constant
Frame rate : 25.000 FPS
Color space : YUV
Chroma subsampling : 4:2:0
Bit depth : 8 bits
Scan type : Progressive
Bits/(Pixel*Frame) : 0.138
Stream size : 930 MiB (94%)
Writing library : x264 core 157 r2935 545de2f
Encoding settings : cabac=1 / ref=5 / deblock=1:-2:-2 / analyse=0x3:0x113 / me=hex / subme=8 / psy=1 / psy_rd=1.00:0.00 / mixed_ref=1 / me_range=16 / chroma_me=1 / trellis=2 / 8x8dct=1 / cqm=0 / deadzone=21,11 / fast_pskip=1 / chroma_qp_offset=-2 / threads=12 / lookahead_threads=2 / sliced_threads=0 / nr=0 / decimate=1 / interlaced=0 / bluray_compat=0 / constrained_intra=0 / bframes=3 / b_pyramid=2 / b_adapt=1 / b_bias=0 / direct=3 / weightb=1 / open_gop=0 / weightp=2 / keyint=250 / keyint_min=25 / scenecut=40 / intra_refresh=0 / rc_lookahead=50 / rc=crf / mbtree=1 / crf=20.0 / qcomp=0.60 / qpmin=0 / qpmax=69 / qpstep=4 / ip_ratio=1.40 / aq=1:1.00
Language : English
Default : Yes
Forced : No

Audio
ID : 2
Format : MPEG Audio
Format version : Version 1
Format profile : Layer 2
Codec ID : A_MPEG/L2
Codec ID/Hint : MP2
Duration : 40 min 57 s
Bit rate mode : Constant
Bit rate : 192 kb/s
Channel(s) : 2 channels
Sampling rate : 48.0 kHz
Frame rate : 41.667 FPS (1152 spf)
Compression mode : Lossy
Stream size : 56.2 MiB (6%)
Language : English
Default : Yes
Forced : No

Text
ID : 3
Format : UTF-8
Codec ID : S_TEXT/UTF8
Codec ID/Info : UTF-8 Plain Text
Bit rate : 0 b/s
Count of elements : 0
Stream size : 0.00 Byte (0%)
Language : English
Default : Yes
Forced : No


Screenshots:

VICE - Heimo's Arctic Refuge (2010)

VICE - Heimo's Arctic Refuge (2010)

VICE - Heimo's Arctic Refuge (2010)

VICE - Heimo's Arctic Refuge (2010)