Tags
Language
Tags

Viktor und Viktoria / Victor and Victoria (1933)

Posted By: Without
1080p (FullHD) / BDRip IMDb
Viktor und Viktoria / Victor and Victoria (1933)

Viktor und Viktoria / Victor and Victoria (1933)
BRRip 720p | MP4 | 1 h 38 min | 1.20 GB | 856x720 | AVC@1500 kb/s | Deutsch AAC@224 kb/s, 2 ch
BRRip 1080p | MP4 | 1 h 38 min | 1.89 GB | 1284x1080 | AVC@2500 kb/s | Deutsch AAC@224 kb/s, 2 ch
BDRip 720p | MKV | 1 h 38 min | 5.42 GB | 856x720 | AVC@7474 kb/s
Deutsch FLAC@262 kb/s, 2 ch | English AAC@88.5 kb/s, 2 ch (Commentary)
BDRip 1080p | MKV | 1 h 38 min | 10.9 GB | 1284x1080 | AVC@15.4 Mb/s
Deutsch FLAC@262 kb/s, 2 ch | English AAC@88.5 kb/s, 2 ch (Commentary)
Subs: English
Genre: Comedy, Musical

Aspiring singer Susanne takes over for ham actor Viktor at a small cabaret in Berlin where he works a woman impersonator and per chance she's discovered by an agent, who thinks that she really is a man. She becomes famous, but her situation becomes troublesome when she falls in love with Robert.



General
Victor.and.Victoria.1933.GERMAN.720p.BluRay.H264.AAC.mp4
Format : MPEG-4
Format profile : Base Media
Codec ID : isom (isom/iso2/avc1/mp41)
File size : 1.20 GB
Duration : 1 h 38 min
Overall bit rate : 1730 kb/s
Encoded date : UTC 2021-02-21 18:42:43
Tagged date : UTC 2021-02-21 18:42:43
Writing application : Lavf58.20.100

Video
ID : 1
Format : AVC
Format/Info : Advanced Video Codec
Format profile : High@L4.1
Format settings, CABAC : Yes
Format settings, ReFrames : 4 frames
Codec ID : avc1
Codec ID/Info : Advanced Video Coding
Duration : 1 h 38 min
Bit rate : 1500 kb/s
Width : 856 pixels
Height : 720 pixels
Display aspect ratio : 1.189
Frame rate mode : Constant
Frame rate : 23.976 (23976/1000) FPS
Color space : YUV
Chroma subsampling : 4:2:0
Bit depth : 8 bits
Scan type : Progressive
Bits/(Pixel*Frame) : 0.102
Stream size : 1.04 GB (87%)
Writing library : x264 core 152 r2851M ba24899
Encoding settings : cabac=1 / ref=4 / deblock=1:-1:-1 / analyse=0x3:0x113 / me=umh / subme=9 / psy=1 / psy_rd=1.00:0.15 / mixed_ref=1 / me_range=24 / chroma_me=1 / trellis=2 / 8x8dct=1 / cqm=0 / deadzone=21,11 / fast_pskip=1 / chroma_qp_offset=-3 / threads=16 / lookahead_threads=4 / sliced_threads=0 / nr=0 / decimate=1 / interlaced=0 / bluray_compat=0 / constrained_intra=0 / bframes=3 / b_pyramid=2 / b_adapt=2 / b_bias=0 / direct=3 / weightb=1 / open_gop=0 / weightp=2 / keyint=250 / keyint_min=25 / scenecut=40 / intra_refresh=0 / rc_lookahead=50 / rc=2pass / mbtree=1 / bitrate=1500 / ratetol=1.0 / qcomp=0.60 / qpmin=0 / qpmax=69 / qpstep=4 / cplxblur=20.0 / qblur=0.5 / vbv_maxrate=31250 / vbv_bufsize=31250 / nal_hrd=none / filler=0 / ip_ratio=1.40 / aq=3:1.00
Encoded date : UTC 2021-02-21 18:42:43
Tagged date : UTC 2021-02-21 18:42:43

Audio
ID : 2
Format : AAC
Format/Info : Advanced Audio Codec
Format profile : LC
Codec ID : 40
Duration : 1 h 38 min
Bit rate mode : Constant
Bit rate : 224 kb/s
Channel(s) : 2 channels
Channel positions : Front: L R
Sampling rate : 48.0 kHz
Frame rate : 46.875 FPS (1024 spf)
Compression mode : Lossy
Stream size : 159 MB (13%)
Language : German
Default : Yes
Alternate group : 1
Encoded date : UTC 2021-02-21 18:42:43
Tagged date : UTC 2021-02-21 18:42:43


General
Victor.and.Victoria.1933.GERMAN.1080p.BluRay.H264.AAC.mp4
Format : MPEG-4
Format profile : Base Media
Codec ID : isom (isom/iso2/avc1/mp41)
File size : 1.89 GB
Duration : 1 h 38 min
Overall bit rate : 2730 kb/s
Encoded date : UTC 2021-02-21 19:50:39
Tagged date : UTC 2021-02-21 19:50:39
Writing application : Lavf58.20.100

Video
ID : 1
Format : AVC
Format/Info : Advanced Video Codec
Format profile : High@L4.1
Format settings, CABAC : Yes
Format settings, ReFrames : 4 frames
Codec ID : avc1
Codec ID/Info : Advanced Video Coding
Duration : 1 h 38 min
Bit rate : 2500 kb/s
Width : 1284 pixels
Height : 1080 pixels
Display aspect ratio : 1.189
Frame rate mode : Constant
Frame rate : 23.976 (23976/1000) FPS
Color space : YUV
Chroma subsampling : 4:2:0
Bit depth : 8 bits
Scan type : Progressive
Bits/(Pixel*Frame) : 0.075
Stream size : 1.73 GB (92%)
Writing library : x264 core 152 r2851M ba24899
Encoding settings : cabac=1 / ref=4 / deblock=1:-1:-1 / analyse=0x3:0x113 / me=umh / subme=9 / psy=1 / psy_rd=1.00:0.15 / mixed_ref=1 / me_range=24 / chroma_me=1 / trellis=2 / 8x8dct=1 / cqm=0 / deadzone=21,11 / fast_pskip=1 / chroma_qp_offset=-3 / threads=16 / lookahead_threads=4 / sliced_threads=0 / nr=0 / decimate=1 / interlaced=0 / bluray_compat=0 / constrained_intra=0 / bframes=3 / b_pyramid=2 / b_adapt=2 / b_bias=0 / direct=3 / weightb=1 / open_gop=0 / weightp=2 / keyint=250 / keyint_min=25 / scenecut=40 / intra_refresh=0 / rc_lookahead=50 / rc=2pass / mbtree=1 / bitrate=2500 / ratetol=1.0 / qcomp=0.60 / qpmin=0 / qpmax=69 / qpstep=4 / cplxblur=20.0 / qblur=0.5 / vbv_maxrate=31250 / vbv_bufsize=31250 / nal_hrd=none / filler=0 / ip_ratio=1.40 / aq=3:1.00
Encoded date : UTC 2021-02-21 19:50:39
Tagged date : UTC 2021-02-21 19:50:39

Audio
ID : 2
Format : AAC
Format/Info : Advanced Audio Codec
Format profile : LC
Codec ID : 40
Duration : 1 h 38 min
Bit rate mode : Constant
Bit rate : 224 kb/s
Channel(s) : 2 channels
Channel positions : Front: L R
Sampling rate : 48.0 kHz
Frame rate : 46.875 FPS (1024 spf)
Compression mode : Lossy
Stream size : 159 MB (8%)
Language : German
Default : Yes
Alternate group : 1
Encoded date : UTC 2021-02-21 19:50:39
Tagged date : UTC 2021-02-21 19:50:39


General
victor.and.victoria.1933.720p.bluray.x264-bipolar.mkv
Format : Matroska
Format version : Version 4 / Version 2
File size : 5.42 GB
Duration : 1 h 38 min
Overall bit rate mode : Variable
Overall bit rate : 7846 kb/s
Encoded date : UTC 2021-02-17 07:13:38
Writing application : mkvmerge v8.5.1 ('Where you lead I will follow') 64bit
Writing library : libebml v1.3.3 + libmatroska v1.4.4

Video
ID : 1
Format : AVC
Format/Info : Advanced Video Codec
Format profile : High@L4.1
Format settings, CABAC : Yes
Format settings, ReFrames : 13 frames
Codec ID : V_MPEG4/ISO/AVC
Duration : 1 h 38 min
Bit rate : 7474 kb/s
Width : 856 pixels
Height : 720 pixels
Display aspect ratio : 1.189
Frame rate mode : Constant
Frame rate : 23.976 (24000/1001) FPS
Color space : YUV
Chroma subsampling : 4:2:0
Bit depth : 8 bits
Scan type : Progressive
Bits/(Pixel*Frame) : 0.506
Stream size : 5.16 GB (95%)
Writing library : x264 core 161 r3027 4121277
Encoding settings : cabac=1 / ref=13 / deblock=1:-3:-3 / analyse=0x3:0x133 / me=umh / subme=10 / psy=1 / psy_rd=1.00:0.15 / mixed_ref=1 / me_range=24 / chroma_me=1 / trellis=2 / 8x8dct=1 / cqm=0 / deadzone=21,11 / fast_pskip=1 / chroma_qp_offset=-3 / threads=18 / lookahead_threads=3 / sliced_threads=0 / nr=0 / decimate=1 / interlaced=0 / bluray_compat=0 / constrained_intra=0 / bframes=8 / b_pyramid=2 / b_adapt=2 / b_bias=0 / direct=3 / weightb=1 / open_gop=0 / weightp=2 / keyint=250 / keyint_min=23 / scenecut=40 / intra_refresh=0 / rc_lookahead=60 / rc=crf / mbtree=1 / crf=22.0 / qcomp=0.60 / qpmin=0 / qpmax=69 / qpstep=4 / ip_ratio=1.40 / aq=3:0.50
Language : English
Default : Yes
Forced : No
Color range : Limited
Matrix coefficients : BT.709

Audio #1
ID : 2
Format : FLAC
Format/Info : Free Lossless Audio Codec
Codec ID : A_FLAC
Duration : 1 h 38 min
Bit rate mode : Variable
Bit rate : 262 kb/s
Channel(s) : 2 channels
Channel positions : Front: L R
Sampling rate : 48.0 kHz
Frame rate : 11.719 FPS (4096 spf)
Bit depth : 16 bits
Stream size : 185 MB (3%)
Writing library : libFLAC 1.2.1 (UTC 2007-09-17)
Language : German
Default : Yes
Forced : No

Audio #2
ID : 3
Format : AAC
Format/Info : Advanced Audio Codec
Format profile : LC
Codec ID : A_AAC
Duration : 1 h 38 min
Bit rate : 88.5 kb/s
Channel(s) : 2 channels
Channel positions : Front: L R
Sampling rate : 48.0 kHz
Frame rate : 46.875 FPS (1024 spf)
Compression mode : Lossy
Delay relative to video : 9 ms
Stream size : 62.6 MB (1%)
Title : English Commentary by Gaylyn Studlar
Language : English
Default : No
Forced : No

Text #1
ID : 4
Format : UTF-8
Codec ID : S_TEXT/UTF8
Codec ID/Info : UTF-8 Plain Text
Duration : 1 h 38 min
Bit rate : 42 b/s
Count of elements : 908
Stream size : 30.9 KiB (0%)
Title : English
Language : English
Default : Yes
Forced : Yes

Text #2
ID : 5
Format : PGS
Muxing mode : zlib
Codec ID : S_HDMV/PGS
Codec ID/Info : Picture based subtitle format used on BDs/HD-DVDs
Duration : 1 h 38 min
Bit rate : 18.9 kb/s
Count of elements : 1380
Stream size : 13.3 MB (0%)
Title : English
Language : English
Default : No
Forced : No

Menu
00:00:00.000 : en:00:00:00.000
00:12:57.527 : en:00:12:57.527
00:19:31.379 : en:00:19:31.379
00:26:42.226 : en:00:26:42.226
00:36:16.466 : en:00:36:16.466
00:46:11.185 : en:00:46:11.185
01:00:13.610 : en:01:00:13.610
01:14:31.842 : en:01:14:31.842
01:23:45.020 : en:01:23:45.020
01:33:35.026 : en:01:33:35.026


General
victor.and.victoria.1933.1080p.bluray.x264-bipolar.mkv
Format : Matroska
Format version : Version 4 / Version 2
File size : 10.9 GB
Duration : 1 h 38 min
Overall bit rate mode : Variable
Overall bit rate : 15.7 Mb/s
Encoded date : UTC 2021-02-17 07:17:16
Writing application : mkvmerge v8.5.1 ('Where you lead I will follow') 64bit
Writing library : libebml v1.3.3 + libmatroska v1.4.4

Video
ID : 1
Format : AVC
Format/Info : Advanced Video Codec
Format profile : High@L4.1
Format settings, CABAC : Yes
Format settings, ReFrames : 5 frames
Codec ID : V_MPEG4/ISO/AVC
Duration : 1 h 38 min
Bit rate : 15.4 Mb/s
Width : 1284 pixels
Height : 1080 pixels
Display aspect ratio : 1.189
Frame rate mode : Constant
Frame rate : 23.976 (24000/1001) FPS
Color space : YUV
Chroma subsampling : 4:2:0
Bit depth : 8 bits
Scan type : Progressive
Bits/(Pixel*Frame) : 0.462
Stream size : 10.6 GB (98%)
Writing library : x264 core 161 r3027 4121277
Encoding settings : cabac=1 / ref=5 / deblock=1:-3:-3 / analyse=0x3:0x133 / me=umh / subme=10 / psy=1 / psy_rd=1.00:0.15 / mixed_ref=1 / me_range=24 / chroma_me=1 / trellis=2 / 8x8dct=1 / cqm=0 / deadzone=21,11 / fast_pskip=1 / chroma_qp_offset=-3 / threads=18 / lookahead_threads=3 / sliced_threads=0 / nr=0 / decimate=1 / interlaced=0 / bluray_compat=0 / constrained_intra=0 / bframes=8 / b_pyramid=2 / b_adapt=2 / b_bias=0 / direct=3 / weightb=1 / open_gop=0 / weightp=2 / keyint=250 / keyint_min=23 / scenecut=40 / intra_refresh=0 / rc_lookahead=60 / rc=crf / mbtree=1 / crf=23.5 / qcomp=0.60 / qpmin=0 / qpmax=69 / qpstep=4 / ip_ratio=1.40 / aq=3:0.50
Language : English
Default : Yes
Forced : No
Color range : Limited
Matrix coefficients : BT.709

Audio #1
ID : 2
Format : FLAC
Format/Info : Free Lossless Audio Codec
Codec ID : A_FLAC
Duration : 1 h 38 min
Bit rate mode : Variable
Bit rate : 262 kb/s
Channel(s) : 2 channels
Channel positions : Front: L R
Sampling rate : 48.0 kHz
Frame rate : 11.719 FPS (4096 spf)
Bit depth : 16 bits
Stream size : 185 MB (2%)
Writing library : libFLAC 1.2.1 (UTC 2007-09-17)
Language : German
Default : Yes
Forced : No

Audio #2
ID : 3
Format : AAC
Format/Info : Advanced Audio Codec
Format profile : LC
Codec ID : A_AAC
Duration : 1 h 38 min
Bit rate : 88.5 kb/s
Channel(s) : 2 channels
Channel positions : Front: L R
Sampling rate : 48.0 kHz
Frame rate : 46.875 FPS (1024 spf)
Compression mode : Lossy
Delay relative to video : 9 ms
Stream size : 62.6 MB (1%)
Title : English Commentary by Gaylyn Studlar
Language : English
Default : No
Forced : No

Text #1
ID : 4
Format : UTF-8
Codec ID : S_TEXT/UTF8
Codec ID/Info : UTF-8 Plain Text
Duration : 1 h 38 min
Bit rate : 42 b/s
Count of elements : 908
Stream size : 30.9 KiB (0%)
Title : English
Language : English
Default : Yes
Forced : Yes

Text #2
ID : 5
Format : PGS
Muxing mode : zlib
Codec ID : S_HDMV/PGS
Codec ID/Info : Picture based subtitle format used on BDs/HD-DVDs
Duration : 1 h 38 min
Bit rate : 18.9 kb/s
Count of elements : 1380
Stream size : 13.3 MB (0%)
Title : English
Language : English
Default : No
Forced : No

Menu
00:00:00.000 : en:00:00:00.000
00:12:57.527 : en:00:12:57.527
00:19:31.379 : en:00:19:31.379
00:26:42.226 : en:00:26:42.226
00:36:16.466 : en:00:36:16.466
00:46:11.185 : en:00:46:11.185
01:00:13.610 : en:01:00:13.610
01:14:31.842 : en:01:14:31.842
01:23:45.020 : en:01:23:45.020
01:33:35.026 : en:01:33:35.026



BRRip 720p Screenshots

Viktor und Viktoria / Victor and Victoria (1933)

Viktor und Viktoria / Victor and Victoria (1933)

Viktor und Viktoria / Victor and Victoria (1933)


BRRip 1080p Screenshots

Viktor und Viktoria / Victor and Victoria (1933)

Viktor und Viktoria / Victor and Victoria (1933)

Viktor und Viktoria / Victor and Victoria (1933)


BDRip 720p Screenshots

Viktor und Viktoria / Victor and Victoria (1933)

Viktor und Viktoria / Victor and Victoria (1933)

Viktor und Viktoria / Victor and Victoria (1933)


BDRip 1080p Screenshots

Viktor und Viktoria / Victor and Victoria (1933)

Viktor und Viktoria / Victor and Victoria (1933)

Viktor und Viktoria / Victor and Victoria (1933)


Come Visit My Blog (•‿•)