Tags
Language
Tags

Vikings S05E01

Posted By: Tavaz
SD / WEB-DL IMDb
Vikings S05E01

Vikings S05E01
WEB-DL | MKV | 720x406 | French | H264 @ 988 kbps | AAC @ 160 kbps | 44 min 16 s | 365 MiB
Subtitles: French
Genre: Drama

Vikings follows the adventures of Ragnar Lothbrok, the greatest hero of his age. The series tells the sagas of Ragnar's band of Viking brothers and his family, as he rises to become King of the Viking tribes. As well as being a fearless warrior, Ragnar embodies the Norse traditions of devotion to the gods. Legend has it that he was a direct descendant of Odin, the god of war and warriors.



Vikings.S05E01.FRENCH.LD.AMZN.WEB-DL.x264-FRATERNiTY.mkv (341.2 MB)
Vikings.S05E02.FRENCH.LD.AMZN.WEB-DL.x264-FRATERNiTY.mkv (364.5 MB)



General
Unique ID : 24114660828142146433568108430811304829 (0x12245092B8431F503BB7B90161CD937D)
Complete name : ./Vikings.S05E02.FRENCH.LD.AMZN.WEB-DL.x264-FRATERNiTY.mkv
Format : Matroska
Format version : Version 4 / Version 2
File size : 365 MiB
Duration : 44 min 16 s
Overall bit rate : 1 151 kb/s
Movie name : Vikings.S05E02.FRENCH.LD.AMZN.WEB-DL.x264-FRATERNiTY
Encoded date : UTC 2017-12-01 04:52:35
Writing application : mkvmerge v18.0.0 ('Apricity') 64-bit
Writing library : libebml v1.3.5 + libmatroska v1.4.8

Video
ID : 1
Format : AVC
Format/Info : Advanced Video Codec
Format profile : High@L3.1
Format settings : CABAC / 5 Ref Frames
Format settings, CABAC : Yes
Format settings, RefFrames : 5 frames
Codec ID : V_MPEG4/ISO/AVC
Duration : 44 min 16 s
Bit rate : 989 kb/s
Width : 720 pixels
Height : 406 pixels
Display aspect ratio : 16:9
Frame rate mode : Constant
Frame rate : 23.976 (24000/1001) FPS
Color space : YUV
Chroma subsampling : 4:2:0
Bit depth : 8 bits
Scan type : Progressive
Bits/(Pixel*Frame) : 0.141
Stream size : 313 MiB (86%)
Title : Vikings.S05E02.FRENCH.LD.AMZN.WEB-DL.x264-FRATERNiTY
Writing library : x264 core 152 r2851 ba24899
Encoding settings : cabac=1 / ref=5 / deblock=1:0:0 / analyse=0x3:0x113 / me=hex / subme=9 / psy=1 / psy_rd=1.00:0.00 / mixed_ref=1 / me_range=16 / chroma_me=1 / trellis=1 / 8x8dct=1 / cqm=0 / deadzone=21,11 / fast_pskip=1 / chroma_qp_offset=-2 / threads=12 / lookahead_threads=1 / sliced_threads=0 / nr=0 / decimate=1 / interlaced=0 / bluray_compat=0 / constrained_intra=0 / bframes=3 / b_pyramid=2 / b_adapt=1 / b_bias=0 / direct=1 / weightb=1 / open_gop=0 / weightp=2 / keyint=240 / keyint_min=24 / scenecut=40 / intra_refresh=0 / rc_lookahead=50 / rc=crf / mbtree=1 / crf=19.0 / qcomp=0.60 / qpmin=0 / qpmax=69 / qpstep=4 / ip_ratio=1.40 / aq=1:1.00
Language : French
Default : Yes
Forced : No
Color range : Limited
Matrix coefficients : BT.709

Audio
ID : 2
Format : AAC
Format/Info : Advanced Audio Codec
Format profile : LC
Codec ID : A_AAC-2
Duration : 44 min 16 s
Bit rate : 160 kb/s
Channel(s) : 2 channels
Channel positions : Front: L R
Sampling rate : 48.0 kHz
Frame rate : 46.875 FPS (1024 SPF)
Compression mode : Lossy
Delay relative to video : 20 ms
Stream size : 50.7 MiB (14%)
Title : Vikings.S05E02.FRENCH.LD.AMZN.WEB-DL.x264-FRATERNiTY
Language : French
Default : Yes
Forced : No

Text
ID : 3
Format : UTF-8
Codec ID : S_TEXT/UTF8
Codec ID/Info : UTF-8 Plain Text
Duration : 2 min 57 s
Bit rate : 16 b/s
Count of elements : 7
Stream size : 360 Bytes (0%)
Title : French.Forced
Language : French
Default : Yes
Forced : Yes

Menu
00:00:00.000 : en:Opening Credits
00:00:50.000 : en:Alone at the sea
00:01:47.000 : en:A taste of revenge
00:07:40.000 : en:Who is the leader
00:10:59.000 : en:Act sooner rather than later
00:16:32.000 : en:Every hope of success
00:21:27.000 : en:Not like this
00:23:01.000 : en:Heading to York
00:23:45.000 : en:About King Harald's plan
00:26:07.000 : en:Let God lead the way
00:26:41.000 : en:A score to settle with the sons of Ragnar
00:31:20.000 : en:Guided by the bird
00:38:24.000 : en:Doubts about Lagertha
00:39:16.000 : en:The land of the Gods
00:41:20.000 : en:Ready to battle
00:43:16.000 : en:End Credits





Vikings S05E01


Vikings S05E01


Vikings S05E01


Vikings S05E01


Vikings S05E01

All episodes