Tags
Language
Tags

Vikings S05E03

Posted By: Tavaz
1080p (FullHD) / WEB-DL IMDb
Vikings S05E03

Vikings S05E03
WEB-DL | MKV | 1920x1080 | French | H264 @ 7492 kbps | AC-3 @ 384 kbps | 44 min 17 s | 2.44 GiB
Subtitles: French
Genre: Drame

Les exploits d'un groupe de vikings de la fin du 8ème siècle jusqu'au milieu du 11ème, mené par Ragnar Lodbrok, l'un des plus populaires héros viking de tous les temps, qui a régné quelques temps sur le Danemark et la Suède…

Vikings.S05E03.FRENCH.1080p.AMZN.WEB-DL.DD5.1.H264-FRATERNiTY.mkv (2.4 GB)



General
Unique ID : 189274998811188777907439963591790566616 (0x8E6509EE5DCCB7DFF166EACFB9B41CD8)
Complete name : ./Vikings.S05E03.FRENCH.1080p.AMZN.WEB-DL.DD5.1.H264-FRATERNiTY.mkv
Format : Matroska
Format version : Version 4 / Version 2
File size : 2.44 GiB
Duration : 44 min 17 s
Overall bit rate mode : Variable
Overall bit rate : 7 878 kb/s
Movie name : Vikings.S05E03.FRENCH.1080p.AMZN.WEB-DL.DD5.1.H264-FRATERNiTY
Encoded date : UTC 2017-12-08 07:15:41
Writing application : mkvmerge v18.0.0 ('Apricity') 64-bit
Writing library : libebml v1.3.5 + libmatroska v1.4.8

Video
ID : 1
Format : AVC
Format/Info : Advanced Video Codec
Format profile : High@L4
Format settings : CABAC / 4 Ref Frames
Format settings, CABAC : Yes
Format settings, RefFrames : 4 frames
Codec ID : V_MPEG4/ISO/AVC
Duration : 44 min 17 s
Bit rate mode : Variable
Bit rate : 7 492 kb/s
Maximum bit rate : 15.0 Mb/s
Width : 1 920 pixels
Height : 1 080 pixels
Display aspect ratio : 16:9
Frame rate mode : Constant
Frame rate : 23.976 (24000/1001) FPS
Color space : YUV
Chroma subsampling : 4:2:0
Bit depth : 8 bits
Scan type : Progressive
Bits/(Pixel*Frame) : 0.151
Stream size : 2.32 GiB (95%)
Title : Vikings.S05E03.FRENCH.1080p.AMZN.WEB-DL.DD5.1.H264-FRATERNiTY
Language : French
Default : Yes
Forced : No
Color range : Limited
Color primaries : BT.709
Transfer characteristics : BT.709
Matrix coefficients : BT.709

Audio
ID : 2
Format : AC-3
Format/Info : Audio Coding 3
Format settings, Endianness : Big
Codec ID : A_AC3
Duration : 44 min 17 s
Bit rate mode : Constant
Bit rate : 384 kb/s
Channel(s) : 6 channels
Channel positions : Front: L C R, Side: L R, LFE
Sampling rate : 48.0 kHz
Frame rate : 31.250 FPS (1536 SPF)
Bit depth : 16 bits
Compression mode : Lossy
Stream size : 122 MiB (5%)
Title : Vikings.S05E03.FRENCH.1080p.AMZN.WEB-DL.DD5.1.H264-FRATERNiTY
Language : French
Service kind : Complete Main
Default : Yes
Forced : No

Text
ID : 3
Format : UTF-8
Codec ID : S_TEXT/UTF8
Codec ID/Info : UTF-8 Plain Text
Duration : 39 min 7 s
Bit rate : 6 b/s
Count of elements : 32
Stream size : 1.78 KiB (0%)
Title : French.Forced
Language : French
Default : Yes
Forced : Yes

Menu
00:00:00.000 : en:Opening Credits
00:00:50.000 : en:Among the Gods
00:02:30.000 : en:The King is returned
00:05:04.000 : en:A sacrifice for the Gods
00:08:43.000 : en:The right time to attack
00:09:27.000 : en:The reasons of Halfdan
00:11:02.000 : en:Time to battle
00:16:15.000 : en:Come out and fight
00:22:53.000 : en:Different interests
00:24:23.000 : en:Not an easy choice for Astrid
00:26:28.000 : en:Sneaking out
00:27:04.000 : en:It's not that easy
00:29:15.000 : en:Ubbe and Hvitserk try to make peace
00:37:36.000 : en:Finding the answers
00:41:26.000 : en:Everyone is with me
00:43:16.000 : en:End Credits





Vikings S05E03


Vikings S05E03


Vikings S05E03


Vikings S05E03


Vikings S05E03

All episodes