Tags
Language
Tags

Vikings S05E03

Posted By: Tavaz
SD / WEB-DL IMDb
Vikings S05E03

Vikings S05E03
WEB-DL | MKV | 720x406 | French | H264 @ 1022 kbps | AAC @ 160 kbps | 44 min 17 s | 375 MiB
Subtitles: French
Genre: Drame

Les exploits d'un groupe de vikings de la fin du 8ème siècle jusqu'au milieu du 11ème, mené par Ragnar Lodbrok, l'un des plus populaires héros viking de tous les temps, qui a régné quelques temps sur le Danemark et la Suède…

Vikings.S05E03.FRENCH.LD.AMZN.WEB-DL.x264-FRATERNiTY.mkv (375.4 MB)



General
Unique ID : 112400891369062313102992195756304623175 (0x548F9FCE9BD7491EC8AD9D8E9BA7E647)
Complete name : ./Vikings.S05E03.FRENCH.LD.AMZN.WEB-DL.x264-FRATERNiTY.mkv
Format : Matroska
Format version : Version 4 / Version 2
File size : 375 MiB
Duration : 44 min 17 s
Overall bit rate : 1 185 kb/s
Movie name : Vikings.S05E03.FRENCH.LD.AMZN.WEB-DL.x264-FRATERNiTY
Encoded date : UTC 2017-12-08 07:15:06
Writing application : mkvmerge v18.0.0 ('Apricity') 64-bit
Writing library : libebml v1.3.5 + libmatroska v1.4.8

Video
ID : 1
Format : AVC
Format/Info : Advanced Video Codec
Format profile : High@L3.1
Format settings : CABAC / 5 Ref Frames
Format settings, CABAC : Yes
Format settings, RefFrames : 5 frames
Codec ID : V_MPEG4/ISO/AVC
Duration : 44 min 17 s
Bit rate : 1 023 kb/s
Width : 720 pixels
Height : 406 pixels
Display aspect ratio : 16:9
Frame rate mode : Constant
Frame rate : 23.976 (24000/1001) FPS
Color space : YUV
Chroma subsampling : 4:2:0
Bit depth : 8 bits
Scan type : Progressive
Bits/(Pixel*Frame) : 0.146
Stream size : 324 MiB (86%)
Title : Vikings.S05E03.FRENCH.LD.AMZN.WEB-DL.x264-FRATERNiTY
Writing library : x264 core 152 r2851 ba24899
Encoding settings : cabac=1 / ref=5 / deblock=1:0:0 / analyse=0x3:0x113 / me=hex / subme=9 / psy=1 / psy_rd=1.00:0.00 / mixed_ref=1 / me_range=16 / chroma_me=1 / trellis=1 / 8x8dct=1 / cqm=0 / deadzone=21,11 / fast_pskip=1 / chroma_qp_offset=-2 / threads=12 / lookahead_threads=1 / sliced_threads=0 / nr=0 / decimate=1 / interlaced=0 / bluray_compat=0 / constrained_intra=0 / bframes=3 / b_pyramid=2 / b_adapt=1 / b_bias=0 / direct=1 / weightb=1 / open_gop=0 / weightp=2 / keyint=240 / keyint_min=24 / scenecut=40 / intra_refresh=0 / rc_lookahead=50 / rc=crf / mbtree=1 / crf=19.0 / qcomp=0.60 / qpmin=0 / qpmax=69 / qpstep=4 / ip_ratio=1.40 / aq=1:1.00
Language : French
Default : Yes
Forced : No
Color range : Limited
Matrix coefficients : BT.709

Audio
ID : 2
Format : AAC
Format/Info : Advanced Audio Codec
Format profile : LC
Codec ID : A_AAC-2
Duration : 44 min 17 s
Bit rate : 160 kb/s
Channel(s) : 2 channels
Channel positions : Front: L R
Sampling rate : 48.0 kHz
Frame rate : 46.875 FPS (1024 SPF)
Compression mode : Lossy
Delay relative to video : 20 ms
Stream size : 50.7 MiB (14%)
Title : Vikings.S05E03.FRENCH.LD.AMZN.WEB-DL.x264-FRATERNiTY
Language : French
Default : Yes
Forced : No

Text
ID : 3
Format : UTF-8
Codec ID : S_TEXT/UTF8
Codec ID/Info : UTF-8 Plain Text
Duration : 39 min 7 s
Bit rate : 6 b/s
Count of elements : 32
Stream size : 1.78 KiB (0%)
Title : French.Forced
Language : French
Default : Yes
Forced : Yes

Menu
00:00:00.000 : en:Opening Credits
00:00:50.000 : en:Among the Gods
00:02:30.000 : en:The King is returned
00:05:04.000 : en:A sacrifice for the Gods
00:08:43.000 : en:The right time to attack
00:09:27.000 : en:The reasons of Halfdan
00:11:02.000 : en:Time to battle
00:16:15.000 : en:Come out and fight
00:22:53.000 : en:Different interests
00:24:23.000 : en:Not an easy choice for Astrid
00:26:28.000 : en:Sneaking out
00:27:04.000 : en:It's not that easy
00:29:15.000 : en:Ubbe and Hvitserk try to make peace
00:37:36.000 : en:Finding the answers
00:41:26.000 : en:Everyone is with me
00:43:16.000 : en:End Credits





Vikings S05E03


Vikings S05E03


Vikings S05E03


Vikings S05E03


Vikings S05E03

All episodes