Tags
Language
Tags

Vikings S05E04

Posted By: Tavaz
1080p (FullHD) / WEB-DL IMDb
Vikings S05E04

Vikings S05E04
WEB-DL | MKV | 1920x1080 | French | H264 @ 7391 kbps | AC-3 @ 384 kbps | 43 min 59 s | 2.39 GiB
Subtitles: French
Genre: Drame

Les exploits d'un groupe de vikings de la fin du 8ème siècle jusqu'au milieu du 11ème, mené par Ragnar Lodbrok, l'un des plus populaires héros viking de tous les temps, qui a régné quelques temps sur le Danemark et la Suède…

Vikings.S05E04.FRENCH.1080p.AMZN.WEB-DL.DD5.1.H264-FRATERNiTY.mkv (2.4 GB)



General
Unique ID : 200308558664752203121473682736565129507 (0x96B2066E96B3CE815F90FBE448571123)
Complete name : ./Vikings.S05E04.FRENCH.1080p.AMZN.WEB-DL.DD5.1.H264-FRATERNiTY.mkv
Format : Matroska
Format version : Version 4 / Version 2
File size : 2.39 GiB
Duration : 43 min 59 s
Overall bit rate mode : Variable
Overall bit rate : 7 777 kb/s
Movie name : Vikings.S05E04.FRENCH.1080p.AMZN.WEB-DL.DD5.1.H264-FRATERNiTY
Encoded date : UTC 2017-12-15 07:24:25
Writing application : mkvmerge v18.0.0 ('Apricity') 64-bit
Writing library : libebml v1.3.5 + libmatroska v1.4.8

Video
ID : 1
Format : AVC
Format/Info : Advanced Video Codec
Format profile : High@L4
Format settings : CABAC / 4 Ref Frames
Format settings, CABAC : Yes
Format settings, RefFrames : 4 frames
Codec ID : V_MPEG4/ISO/AVC
Duration : 43 min 59 s
Bit rate mode : Variable
Bit rate : 7 391 kb/s
Maximum bit rate : 15.0 Mb/s
Width : 1 920 pixels
Height : 1 080 pixels
Display aspect ratio : 16:9
Frame rate mode : Constant
Frame rate : 23.976 (24000/1001) FPS
Color space : YUV
Chroma subsampling : 4:2:0
Bit depth : 8 bits
Scan type : Progressive
Bits/(Pixel*Frame) : 0.149
Stream size : 2.27 GiB (95%)
Title : Vikings.S05E04.FRENCH.1080p.AMZN.WEB-DL.DD5.1.H264-FRATERNiTY
Language : French
Default : Yes
Forced : No
Color range : Limited
Color primaries : BT.709
Transfer characteristics : BT.709
Matrix coefficients : BT.709

Audio
ID : 2
Format : AC-3
Format/Info : Audio Coding 3
Format settings, Endianness : Big
Codec ID : A_AC3
Duration : 43 min 59 s
Bit rate mode : Constant
Bit rate : 384 kb/s
Channel(s) : 6 channels
Channel positions : Front: L C R, Side: L R, LFE
Sampling rate : 48.0 kHz
Frame rate : 31.250 FPS (1536 SPF)
Bit depth : 16 bits
Compression mode : Lossy
Stream size : 121 MiB (5%)
Title : Vikings.S05E04.FRENCH.1080p.AMZN.WEB-DL.DD5.1.H264-FRATERNiTY
Language : French
Service kind : Complete Main
Default : Yes
Forced : No

Text
ID : 3
Format : UTF-8
Codec ID : S_TEXT/UTF8
Codec ID/Info : UTF-8 Plain Text
Duration : 39 min 15 s
Bit rate : 11 b/s
Count of elements : 58
Stream size : 3.42 KiB (0%)
Title : French.Forced
Language : French
Default : Yes
Forced : Yes

Menu
00:00:00.000 : en:Opening Credits
00:00:50.000 : en:A new land lies ahead
00:03:17.000 : en:Bishop Heahmund's vision
00:05:57.000 : en:Ubbe arrives in Kattegat
00:10:51.000 : en:We are traders
00:12:09.000 : en:Foodless
00:14:55.000 : en:Between loyalty and betrayal
00:16:37.000 : en:A reinforcement for King Aethelwulf
00:18:22.000 : en:The Northmen arrive in Sicily
00:23:13.000 : en:Too much knowledge is an agony
00:24:25.000 : en:A sign of the right choice
00:25:02.000 : en:Nothing is as it seems
00:28:14.000 : en:Who is the commander
00:30:33.000 : en:Ivar starts his plan
00:31:46.000 : en:Thanking the Gods
00:33:45.000 : en:Astrid announces her decision
00:37:47.000 : en:Following the signs
00:39:06.000 : en:A request for Euphemius
00:40:54.000 : en:The destiny of York
00:42:58.000 : en:End Credits





Vikings S05E04


Vikings S05E04


Vikings S05E04


Vikings S05E04


Vikings S05E04

All episodes