Tags
Language
Tags

Vikings S05E05

Posted By: Tavaz
1080p (FullHD) / WEB-DL IMDb
Vikings S05E05

Vikings S05E05
WEB-DL | MKV | 1920x1080 | French | H264 @ 7375 kbps | AC-3 @ 384 kbps | 48 min 5 s | 2.61 GiB
Subtitles: French
Genre: Drame

Les exploits d'un groupe de vikings de la fin du 8ème siècle jusqu'au milieu du 11ème, mené par Ragnar Lodbrok, l'un des plus populaires héros viking de tous les temps, qui a régné quelques temps sur le Danemark et la Suède…

Vikings.S05E05.FRENCH.1080p.AMZN.WEB-DL.DD5.1.H264-FRATERNiTY.mkv (2.6 GB)



General
Unique ID : 272217740194762092594465355267027751461 (0xCCCB3ACF27F84038B625B530CB13D225)
Complete name : ./Vikings.S05E05.FRENCH.1080p.AMZN.WEB-DL.DD5.1.H264-FRATERNiTY.mkv
Format : Matroska
Format version : Version 4 / Version 2
File size : 2.61 GiB
Duration : 48 min 5 s
Overall bit rate mode : Variable
Overall bit rate : 7 762 kb/s
Movie name : Vikings.S05E05.FRENCH.1080p.AMZN.WEB-DL.DD5.1.H264-FRATERNiTY
Encoded date : UTC 2017-12-22 07:21:40
Writing application : mkvmerge v19.0.0 ('Brave Captain') 64-bit
Writing library : libebml v1.3.5 + libmatroska v1.4.8

Video
ID : 1
Format : AVC
Format/Info : Advanced Video Codec
Format profile : High@L4
Format settings : CABAC / 4 Ref Frames
Format settings, CABAC : Yes
Format settings, RefFrames : 4 frames
Codec ID : V_MPEG4/ISO/AVC
Duration : 48 min 5 s
Bit rate mode : Variable
Bit rate : 7 376 kb/s
Maximum bit rate : 15.0 Mb/s
Width : 1 920 pixels
Height : 1 080 pixels
Display aspect ratio : 16:9
Frame rate mode : Constant
Frame rate : 23.976 (24000/1001) FPS
Color space : YUV
Chroma subsampling : 4:2:0
Bit depth : 8 bits
Scan type : Progressive
Bits/(Pixel*Frame) : 0.148
Stream size : 2.48 GiB (95%)
Title : Vikings.S05E05.FRENCH.1080p.AMZN.WEB-DL.DD5.1.H264-FRATERNiTY
Language : French
Default : Yes
Forced : No
Color range : Limited
Color primaries : BT.709
Transfer characteristics : BT.709
Matrix coefficients : BT.709

Audio
ID : 2
Format : AC-3
Format/Info : Audio Coding 3
Format settings, Endianness : Big
Codec ID : A_AC3
Duration : 48 min 5 s
Bit rate mode : Constant
Bit rate : 384 kb/s
Channel(s) : 6 channels
Channel positions : Front: L C R, Side: L R, LFE
Sampling rate : 48.0 kHz
Frame rate : 31.250 FPS (1536 SPF)
Bit depth : 16 bits
Compression mode : Lossy
Stream size : 132 MiB (5%)
Title : Vikings.S05E05.FRENCH.1080p.AMZN.WEB-DL.DD5.1.H264-FRATERNiTY
Language : French
Service kind : Complete Main
Default : Yes
Forced : No

Text
ID : 3
Format : UTF-8
Codec ID : S_TEXT/UTF8
Codec ID/Info : UTF-8 Plain Text
Duration : 32 min 46 s
Bit rate : 8 b/s
Count of elements : 37
Stream size : 2.02 KiB (0%)
Title : French.Forced
Language : French
Default : Yes
Forced : Yes

Menu
00:00:00.000 : en:Vorspann
00:00:50.000 : en:Szene 2
00:10:45.000 : en:Szene 3
00:11:41.000 : en:Szene 4
00:13:30.000 : en:Szene 5
00:14:10.000 : en:Szene 6
00:18:57.000 : en:Szene 7
00:24:04.000 : en:Szene 8
00:26:25.000 : en:Szene 9
00:27:26.000 : en:Szene 10
00:29:36.000 : en:Szene 11
00:34:37.000 : en:Szene 12
00:36:11.000 : en:Szene 13
00:38:04.000 : en:Szene 14
00:41:16.000 : en:Szene 15
00:44:14.000 : en:Szene 16
00:45:01.000 : en:Szene 17
00:47:04.000 : en:Abspann





Vikings S05E05


Vikings S05E05


Vikings S05E05


Vikings S05E05


Vikings S05E05

All episodes