Tags
Language
Tags

Villmark Asylum - La clinica dell'orrore (2015)

Posted By: JohnSmith
SD / BDRip IMDb
Villmark Asylum - La clinica dell'orrore (2015)

Villmark Asylum - La clinica dell'orrore / Villmark 2 (2015)
BDRip | MKV / AVC@1840 kb/s | 848x356 | 1h 33mn | 1.49 GB
Italian (dubbed): AC3, 448 kb/s (6 ch) | Subtitles: Italian (forced, full)
Genre: Horror

In un isolato bosco tra le montagne norvegesi una vecchia casa di cura sta cadendo a pezzi. L'anziano custode vive ancora lì per evitare che nessuno acceda all'edificio oramai pericolante. Cinque lavoratori a contratto vengono assunti con il compito di tracciare i rifiuti pericolosi presenti nella struttura prima che sia demolita. Oltre 300 camere e chilometri di condotte devono essere controllati in tre giorni e, ben presto, i lavoratori si renderanno conto che ricercare amianto e mercurio non è mai stato così spaventoso a causa degli orribili segreti che nasconde il sanatorio.

IMDB - 5 nominations.



General
Unique ID : 240488997989102123268501825191668212073 (0xB4EC7F0A63D955C58FDEE6D54249E169)
Complete name : A:\Villmark.Asylum.La.clinica.dell.orrore.2015.ITA.BDRip.480p.CB01HD.mkv
Format : Matroska
Format version : Version 4 / Version 2
File size : 1.49 GiB
Duration : 1 h 33 min
Overall bit rate : 2 271 kb/s
Encoded date : UTC 2018-02-19 07:05:44
Writing application : mkvmerge v8.3.0 ('Over the Horizon') 64bit
Writing library : libebml v1.3.1 + libmatroska v1.4.2

Video
ID : 1
Format : AVC
Format/Info : Advanced Video Codec
Format profile : Main@L3
Format settings, CABAC : Yes
Format settings, ReFrames : 1 frame
Codec ID : V_MPEG4/ISO/AVC
Duration : 1 h 33 min
Bit rate : 1 839 kb/s
Width : 848 pixels
Height : 356 pixels
Display aspect ratio : 2.40:1
Frame rate mode : Constant
Frame rate : 24.000 FPS
Color space : YUV
Chroma subsampling : 4:2:0
Bit depth : 8 bits
Scan type : Progressive
Bits/(Pixel*Frame) : 0.254
Stream size : 1.19 GiB (80%)
Writing library : x264 core 129
Encoding settings : cabac=1 / ref=1 / deblock=1:0:0 / analyse=0x1:0x131 / me=dia / subme=2 / psy=1 / psy_rd=1.00:0.00 / mixed_ref=0 / me_range=16 / chroma_me=1 / trellis=0 / 8x8dct=0 / cqm=0 / deadzone=21,11 / fast_pskip=1 / chroma_qp_offset=0 / threads=8 / lookahead_threads=1 / sliced_threads=0 / nr=0 / decimate=1 / interlaced=0 / bluray_compat=0 / constrained_intra=0 / bframes=0 / weightp=2 / keyint=250 / keyint_min=25 / scenecut=40 / intra_refresh=0 / rc_lookahead=40 / rc=abr / mbtree=1 / bitrate=1839 / ratetol=1.0 / qcomp=0.60 / qpmin=10 / qpmax=51 / qpstep=4 / ip_ratio=1.41 / aq=1:1.00
Default : Yes
Forced : No

Audio
ID : 2
Format : AC-3
Format/Info : Audio Coding 3
Format settings, Endianness : Big
Codec ID : A_AC3
Duration : 1 h 33 min
Bit rate mode : Constant
Bit rate : 448 kb/s
Channel(s) : 6 channels
Channel positions : Front: L C R, Side: L R, LFE
Sampling rate : 48.0 kHz
Frame rate : 31.250 FPS (1536 spf)
Bit depth : 16 bits
Compression mode : Lossy
Stream size : 300 MiB (20%)
Title : WEBDL
Language : Italian
Service kind : Complete Main
Default : Yes
Forced : No

Text #1
ID : 3
Format : UTF-8
Codec ID : S_TEXT/UTF8
Codec ID/Info : UTF-8 Plain Text
Duration : 1 h 20 min
Bit rate : 0 b/s
Count of elements : 12
Stream size : 328 Bytes (0%)
Title : Forced
Language : Italian
Default : Yes
Forced : No

Text #2
ID : 4
Format : UTF-8
Codec ID : S_TEXT/UTF8
Codec ID/Info : UTF-8 Plain Text
Duration : 1 h 30 min
Bit rate : 27 b/s
Count of elements : 707
Stream size : 18.2 KiB (0%)
Language : Italian
Default : No
Forced : No




Screenshots

Villmark Asylum - La clinica dell'orrore (2015)

Villmark Asylum - La clinica dell'orrore (2015)

Villmark Asylum - La clinica dell'orrore (2015)