Vita Activa: The Spirit of Hannah Arendt (2015)

Posted By: Rare-1
1080p (FullHD) / WEB-DL IMDb
Vita Activa: The Spirit of Hannah Arendt (2015)

Vita Activa: The Spirit of Hannah Arendt (2015)
WEB-DL | MKV | 1920 x 1080 | AVC @ 5388 Kbps | 127 min | 4.91 Gb
Audio: English, Hebrew, German AAC 2.0 @ 127 Kbps | Subs: English (HardCoded)
Genre: Documentary | Israel

A documentary about the life and work of hannah arendt, the prolific and unclassifiable thinker,political theorist, moral philosopher and polemicist, and with her encounter with the trial of Eichmann a high ranking nazi.

IMDB 7.2 / 101

Director: Ada Ushpiz
Writer: Ada Ushpiz
Actors: Hannah Arendt, Leon Botstein, Judith Butler, Alison Darcy
Rated: N/A
Runtime: 127 min

The German-Jewish philosopher Hannah Arendt caused an uproar in the 1960s by coining the subversive concept of the "Banality of Evil" when referring to the trial of Adolph Eichmann, which she covered for the New Yorker magazine. Her private life was no less controversial thanks to her early love affair with the renowned German philosopher and Nazi supporter Martin Heidegger. This thought provoking and spirited documentary, with its abundance of archival materials, offers an intimate portrait of the whole of Arendt's life, traveling to places where she lived, worked, loved, and was betrayed, as she wrote about the open wounds of modern times. Through her books, which are still widely read and the recent release of Margarethe von Trotta's biopic Hannah Arendt (also a Zeitgeist Films release) there is renewed interest in Arendt throughout the world, especially among young people who find her insights into the nature of evil, totalitarianism, ideologies, and the perils faced by refugees, more relevant than ever.

Vita Activa: The Spirit of Hannah Arendt (2015)


Vita Activa: The Spirit of Hannah Arendt (2015)



General
Unique ID : 246388233442200816980194477824380714383 (0xB95CA5CDE7820CDEAD7B1C8A07B73D8F)
Complete name : E:\HDNLUF079\New folder\Vita.Activa-The.Spirit.of.Hannah.Arendt.2015.1080p.FANDOR.WEB-DL.AAC2.0.H.264-Cinefeel.mkv
Format : Matroska
Format version : Version 4 / Version 2
File size : 4.91 GiB
Duration : 2 h 7 min
Overall bit rate : 5 518 kb/s
Encoded date : UTC 2017-12-03 15:48:16
Writing application : mkvmerge v10.0.0 ('To Drown In You') 64bit
Writing library : libebml v1.3.4 + libmatroska v1.4.5

Video
ID : 1
Format : AVC
Format/Info : Advanced Video Codec
Format profile : High@L4.1
Format settings, CABAC : Yes
Format settings, RefFrames : 2 frames
Format settings, GOP : M=1, N=50
Codec ID : V_MPEG4/ISO/AVC
Duration : 2 h 7 min
Bit rate : 5 388 kb/s
Width : 1 920 pixels
Height : 1 080 pixels
Display aspect ratio : 16:9
Frame rate mode : Constant
Frame rate : 25.000 FPS
Color space : YUV
Chroma subsampling : 4:2:0
Bit depth : 8 bits
Scan type : Progressive
Bits/(Pixel*Frame) : 0.104
Stream size : 4.79 GiB (98%)
Writing library : Zencoder Video Encoding System
Default : Yes
Forced : No

Audio
ID : 2
Format : AAC
Format/Info : Advanced Audio Codec
Format profile : LC
Codec ID : A_AAC
Duration : 2 h 7 min
Bit rate : 127 kb/s
Channel(s) : 2 channels
Channel positions : Front: L R
Sampling rate : 48.0 kHz
Frame rate : 46.875 FPS (1024 SPF)
Compression mode : Lossy
Stream size : 116 MiB (2%)
Language : English
Default : Yes
Forced : No


Many Thanks to Original uploader.


For More Rare Movies Check out my blog!


Download Links :

No Mirrors Please