Snag Films - Wakaliwood - The Documentary (2012)

Posted By: notbanned
720p (HD) / HDTV
Snag Films - Wakaliwood - The Documentary (2012)

Snag Films - Wakaliwood - The Documentary (2012)
HDTV | 1280x720 | .MP4/AVC @ 3501 Kbps | 1 h 8 min | 1.73 GiB
Audio: English AAC 112 kbps, 2 channels | Subs: None
Genre: Documentary

Explore the story of Isaac Nabwana who founded Ramon Film Productions dedicated to building an independent film industry in the slums of Uganda. Now boasting a team of nearly 100 actors, filmmakers, and technicians - all volunteers - they tackle the creation of feature action films in the unlikeliest environments. Creativity and the collective effort of a dedicated group of people produce thrilling entertainment for a passionate community.

General
Complete name : Wakaliwood.The.Documentary.720p.mp4
Format : MPEG-4
Format profile : Base Media
Codec ID : isom (isom/iso2/mp41)
File size : 1.73 GiB
Duration : 1 h 8 min
Overall bit rate mode : Variable
Overall bit rate : 3 621 kb/s

Video
ID : 1
Format : MPEG-4 Visual
Format profile : Simple@L1
Format settings, BVOP : No
Format settings, QPel : No
Format settings, GMC : No warppoints
Format settings, Matrix : Default (H.263)
Codec ID : 20
Duration : 1 h 8 min
Bit rate mode : Variable
Bit rate : 3 501 kb/s
Maximum bit rate : 9 500 kb/s
Width : 1 280 pixels
Height : 720 pixels
Display aspect ratio : 16:9
Frame rate mode : Variable
Frame rate : 23.976 (23976/1000) FPS
Minimum frame rate : 23.813 FPS
Maximum frame rate : 24.125 FPS
Color space : YUV
Chroma subsampling : 4:2:0
Bit depth : 8 bits
Scan type : Progressive
Compression mode : Lossy
Bits/(Pixel*Frame) : 0.158
Stream size : 1.68 GiB (97%)

Audio
ID : 2
Format : AAC
Format/Info : Advanced Audio Codec
Format profile : LC
Codec ID : 40
Duration : 1 h 8 min
Bit rate mode : Variable
Bit rate : 112 kb/s
Maximum bit rate : 128 kb/s
Channel(s) : 2 channels
Channel positions : Front: L R
Sampling rate : 44.1 kHz
Frame rate : 43.066 FPS (1024 spf)
Compression mode : Lossy
Stream size : 54.9 MiB (3%)
Default : Yes
Alternate group : 1


Screenshots:

Snag Films - Wakaliwood - The Documentary (2012)

Snag Films - Wakaliwood - The 			  		  		  	 			   			  	  		 	 	  	 			   		  	   		  		  	 			   		  		  		 	 				 Documentary (2012)

Snag Films - Wakaliwood - The Documentary (2012)

Snag Films - Wakaliwood - The Documentary (2012)