BBC - War on Plastic with Hugh and Anita: Part 2 (2019)

Posted By: Tutorial
1080p (FullHD) / HDTV
BBC - War on Plastic with Hugh and Anita: Part 2 (2019)

BBC - War on Plastic with Hugh and Anita: Part 2 (2019)
HDTV | 1920 x 1080 | .MP4/AVC @ 4500 Kbps | 57 min 59 s | 1.88 GB
Audio: English AAC 160 Kbps, 2 channels | Subs: English
Genre: Documentary

Hugh Fearnley-Whittingstall and Anita Rani explore where this gigantic problem is coming from, and what we can all do to try and solve it.
Hugh goes on the trail of the plastic that does get recycled Malaysia has become one of the biggest importers of British waste plastics. He travels to Malaysia to try and find out what is happening to it all, and what he sees shocks him to the core. Great piles of unsorted British plastics have been left to rot on illegal dumpsites with much of it sat near split UK council recycling bags.

General
Complete name :BBC.War.on.Plastic.with.Hugh.and.Anita.Part.2.mp4
Format : MPEG-4
Format profile : Base Media
Codec ID : isom (isom)
File size : 1.88 GiB
Duration : 57 min 59 s
Overall bit rate mode : Variable
Overall bit rate : 4 643 kb/s
Encoded date : UTC 2019-06-19 11:55:54
Tagged date : UTC 2019-06-19 11:55:54

Video
ID : 1
Format : AVC
Format/Info : Advanced Video Codec
Format profile : High@L4.1
Format settings, CABAC : Yes
Format settings, ReFrames : 4 frames
Codec ID : avc1
Codec ID/Info : Advanced Video Coding
Duration : 57 min 59 s
Bit rate : 4 500 kb/s
Maximum bit rate : 26.0 Mb/s
Width : 1 920 pixels
Height : 1 080 pixels
Display aspect ratio : 16:9
Frame rate mode : Constant
Frame rate : 25.000 FPS
Color space : YUV
Chroma subsampling : 4:2:0
Bit depth : 8 bits
Scan type : Progressive
Bits/(Pixel*Frame) : 0.087
Stream size : 1.81 GiB (96%)
Title : BBC.War.on.Plastic.with.Hugh.and.Anita.Part.2.1080p.HDTV.H264.AAC..org.mp4
Writing library : x264 core 130 r2273 b3065e6
Encoding settings : cabac=1 / ref=1 / deblock=1:0:0 / analyse=0x3:0x113 / me=hex / subme=2 / psy=1 / psy_rd=1.00:0.00 / mixed_ref=0 / me_range=16 / chroma_me=1 / trellis=0 / 8x8dct=1 / cqm=0 / deadzone=21,11 / fast_pskip=1 / chroma_qp_offset=0 / threads=6 / lookahead_threads=2 / sliced_threads=0 / nr=0 / decimate=1 / interlaced=0 / bluray_compat=0 / constrained_intra=0 / bframes=3 / b_pyramid=2 / b_adapt=1 / b_bias=0 / direct=1 / weightb=1 / open_gop=0 / weightp=1 / keyint=250 / keyint_min=25 / scenecut=40 / intra_refresh=0 / rc_lookahead=10 / rc=abr / mbtree=1 / bitrate=4500 / ratetol=1.0 / qcomp=0.60 / qpmin=0 / qpmax=69 / qpstep=4 / vbv_maxrate=62500 / vbv_bufsize=78125 / nal_hrd=none / ip_ratio=1.40 / aq=1:1.00
Encoded date : UTC 2019-06-19 09:37:55
Tagged date : UTC 2019-06-19 11:56:22
Color range : Limited
Color primaries : BT.709
Transfer characteristics : BT.709
Matrix coefficients : BT.709

Audio
ID : 2
Format : AAC
Format/Info : Advanced Audio Codec
Format profile : LC
Codec ID : 40
Duration : 57 min 59 s
Bit rate mode : Variable
Bit rate : 160 kb/s
Maximum bit rate : 221 kb/s
Channel(s) : 2 channels
Channel positions : Front: L R
Sampling rate : 48.0 kHz
Frame rate : 46.875 FPS (1024 spf)
Compression mode : Lossy
Stream size : 66.3 MiB (3%)
Title : BBC.War.on.Plastic.with.Hugh.and.Anita.Part.2.1080p.HDTV.H264.AAC..org.mp4
Encoded date : UTC 2019-06-19 11:56:16
Tagged date : UTC 2019-06-19 11:56:22

Text
ID : 3
Format : Timed Text
Codec ID : tx3g
Duration : 57 min 30 s
Bit rate mode : Variable
Bit rate : 237 b/s
Stream size : 99.8 KiB (0%)
Title : BBC.War.on.Plastic.with.Hugh.and.Anita.Part.2.1080p.HDTV.H264.AAC..org.srt
Forced : No
Encoded date : UTC 2019-06-19 11:56:22
Tagged date : UTC 2019-06-19 11:56:22
Screenshots

BBC - War on Plastic with Hugh and Anita: Part 2 (2019)

Welcome to my blog - daily update!

BBC - War on Plastic with Hugh and Anita: Part 2 (2019)