Discovery Channel - Warriors of the French Foreign Legion (2002)

Posted By: Tutorial
Discovery Channel - Warriors of the French Foreign Legion (2002)

Discovery Channel - Warriors of the French Foreign Legion (2002)
DVDRip | 704 x 544 | .MKV/AVC @ 1833 Kbps | 50mn 1s | English AC-3 224 Kbps, 2 channels | 743 MB
Genre: Documentary

The Legion is an army surrounded by romance, myth and intrigue. Its history spans more than a hundred and fifty years. The Legion is world renowned for its bravery. From fighting Russian Cossacks in 1853 to patrolling Sarajevo in 1992, they have always been in the thick of the action. At any one time there are approximately ninety to a hundred different nationalities serving in the French Foreign Legion. Men from China, Japan, America, Africa, Iceland, Australia, and Russia have found their way into the hallowed ranks of the Legion. Legionnaires sworn allegiance, and only obligation, is to the Legion itself, not to France. The legions motto is simple: Legio Patria Nester - The Legion Is Our Country. The Legion never leave their weapons behind, and never fail to take an objective. Death comes first.

General
Unique ID : 48641251096137555290644380559043607037 (0x2497F6D5EEB8B11AFC8FCDEA7F1E39FD)
Complete name : Warriors.of.the.French.Foreign.Legion.mkv
Format : Matroska
Format version : Version 4 / Version 2
File size : 743 MiB
Duration : 50mn 1s
Overall bit rate : 2 077 Kbps
Writing application : Lavf56.36.100
Writing library : Lavf56.36.100

Video
ID : 1
Format : AVC
Format/Info : Advanced Video Codec
Format profile : High@L3.0
Format settings, CABAC : Yes
Format settings, ReFrames : 4 frames
Codec ID : V_MPEG4/ISO/AVC
Duration : 50mn 1s
Bit rate : 1 833 Kbps
Width : 704 pixels
Height : 544 pixels
Display aspect ratio : 1.294
Frame rate : 25.000 fps
Color space : YUV
Chroma subsampling : 4:2:0
Bit depth : 8 bits
Scan type : Progressive
Bits/(Pixel*Frame) : 0.191
Stream size : 648 MiB (87%)
Writing library : x264 core 107 r1745 4785e8e
Encoding settings : cabac=1 / ref=4 / deblock=1:0:0 / analyse=0x3:0x113 / me=umh / subme=9 / psy=1 / psy_rd=1.00:0.00 / mixed_ref=1 / me_range=16 / chroma_me=1 / trellis=0 / 8x8dct=1 / cqm=0 / deadzone=21,11 / fast_pskip=1 / chroma_qp_offset=-2 / threads=12 / sliced_threads=0 / nr=0 / decimate=1 / interlaced=0 / constrained_intra=0 / bframes=4 / b_pyramid=2 / b_adapt=2 / b_bias=0 / direct=3 / weightb=1 / open_gop=0 / weightp=2 / keyint=250 / keyint_min=25 / scenecut=40 / intra_refresh=0 / rc_lookahead=40 / rc=2pass / mbtree=1 / bitrate=1833 / ratetol=1.0 / qcomp=0.60 / qpmin=10 / qpmax=51 / qpstep=4 / cplxblur=20.0 / qblur=0.5 / ip_ratio=1.40 / aq=1:1.00
Language : English
Default : Yes
Forced : No

Audio
ID : 2
Format : AC-3
Format/Info : Audio Coding 3
Mode extension : CM (complete main)
Codec ID : A_AC3
Duration : 50mn 1s
Bit rate mode : Constant
Bit rate : 224 Kbps
Channel(s) : 2 channels
Channel positions : Front: L R
Sampling rate : 48.0 KHz
Bit depth : 16 bits
Compression mode : Lossy
Stream size : 80.2 MiB (11%)
Language : English
Default : Yes
Forced : No
Screenshots

Discovery Channel - Warriors of the French Foreign Legion (2002)

Discovery Channel - Warriors of the French Foreign Legion (2002)

Discovery Channel - Warriors of the French Foreign Legion (2002)

Discovery Channel - Warriors of the French Foreign Legion (2002)

Welcome to my blog - daily update!

Discovery Channel - Warriors of the French Foreign Legion (2002)