Tags
Language
Tags

West Side Story (1961)

Posted By: Tavaz
1080p (FullHD) / BDRip IMDb
West Side Story (1961)

West Side Story (1961)
BDRip | MKV | 1920x1080 | English | H264 @ 5760 kbps | AC-3 @ 448 kbps | 2 h 33 min | 6.67 GiB
Subtitles: English
Genre: Crime, Drama, Romance

In the slums of the upper West Side of Manhattan, New York, a gang of Polish-American teenagers called the Jets compete with a rival gang of recently immigrated Puerto Ricans, the Sharks, to "own" the neighborhood streets. Tensions are high between the gangs but two kids, one from each rival gang, fall in love leading to tragedy.

6e58ccbc9b327a328263ce2bd7b7ea1a.mkv (6.7 GB)



General
Complete name : ./6e58ccbc9b327a328263ce2bd7b7ea1a.mkv
Format : Matroska
Format version : Version 4 / Version 2
File size : 6.67 GiB
Duration : 2 h 33 min
Overall bit rate : 6 210 kb/s
Encoded date : UTC 2020-06-02 21:38:51 / UTC 2020-06-02T05:38:27Z
Writing application : mkvmerge v38.0.0 ('The Silent Type') 64-bit
Writing library : libebml v1.3.9 + libmatroska v1.5.2 / Lavf57.7.2

Video
ID : 1
Format : AVC
Format/Info : Advanced Video Codec
Format profile : High@L4
Format settings : CABAC / 4 Ref Frames
Format settings, CABAC : Yes
Format settings, RefFrames : 4 frames
Codec ID : V_MPEG4/ISO/AVC
Duration : 2 h 33 min
Bit rate : 5 760 kb/s
Width : 1 920 pixels
Height : 1 080 pixels
Display aspect ratio : 16:9
Frame rate mode : Constant
Frame rate : 23.976 (24000/1001) FPS
Color space : YUV
Chroma subsampling : 4:2:0
Bit depth : 8 bits
Scan type : Progressive
Bits/(Pixel*Frame) : 0.116
Stream size : 6.05 GiB (91%)
Writing library : x264 core 155 r2901 7d0ff22
Encoding settings : cabac=1 / ref=4 / deblock=1:-3:-3 / analyse=0x3:0x133 / me=umh / subme=9 / psy=1 / psy_rd=1.10:0.25 / mixed_ref=1 / me_range=32 / chroma_me=1 / trellis=2 / 8x8dct=1 / cqm=0 / deadzone=6,6 / fast_pskip=1 / chroma_qp_offset=-4 / threads=34 / lookahead_threads=3 / sliced_threads=0 / nr=0 / decimate=1 / interlaced=0 / bluray_compat=0 / constrained_intra=0 / bframes=6 / b_pyramid=2 / b_adapt=2 / b_bias=0 / direct=3 / weightb=1 / open_gop=0 / weightp=2 / keyint=240 / keyint_min=24 / scenecut=40 / intra_refresh=0 / rc_lookahead=40 / rc=2pass / mbtree=1 / bitrate=5760 / ratetol=1.0 / qcomp=0.60 / qpmin=0 / qpmax=69 / qpstep=4 / cplxblur=20.0 / qblur=0.5 / vbv_maxrate=20000 / vbv_bufsize=25000 / nal_hrd=none / filler=0 / ip_ratio=1.40 / aq=1:1.00
Default : Yes
Forced : No
Color range : Limited
Color primaries : BT.709
Transfer characteristics : BT.709
Matrix coefficients : BT.709
Statistics Tags Issue : mkvmerge v38.0.0 ('The Silent Type') 64-bit 2020-06-02 21:38:51 / mkvmerge v38.0.0 ('The Silent Type') 64-bit 2020-06-02 21:38:51 / UTC 2020-06-02T05:38:27Z
FromStats_BitRate : 5760103
FromStats_Duration : 02:33:43.339000000
FromStats_FrameCount : 221139
FromStats_StreamSize : 6640923771

Audio
ID : 2
Format : AC-3
Format/Info : Audio Coding 3
Format settings, Endianness : Big
Codec ID : A_AC3
Duration : 2 h 33 min
Bit rate mode : Constant
Bit rate : 448 kb/s
Channel(s) : 6 channels
Channel positions : Front: L C R, Side: L R, LFE
Sampling rate : 48.0 kHz
Frame rate : 31.250 FPS (1536 SPF)
Bit depth : 16 bits
Compression mode : Lossy
Stream size : 493 MiB (7%)
Title : Surround
Language : English
Service kind : Complete Main
Default : Yes
Forced : No
Statistics Tags Issue : mkvmerge v38.0.0 ('The Silent Type') 64-bit 2020-06-02 21:38:51 / mkvmerge v38.0.0 ('The Silent Type') 64-bit 2020-06-02 21:38:51 / UTC 2020-06-02T05:38:27Z
FromStats_BitRate : 448000
FromStats_Duration : 02:33:43.360000000
FromStats_FrameCount : 288230
FromStats_StreamSize : 516508160

Text
ID : 3
Format : UTF-8
Codec ID : S_TEXT/UTF8
Codec ID/Info : UTF-8 Plain Text
Language : English
Default : Yes
Forced : No
Statistics Tags Issue : mkvmerge v38.0.0 ('The Silent Type') 64-bit 2020-06-02 21:38:51 / mkvmerge v38.0.0 ('The Silent Type') 64-bit 2020-06-02 21:38:51 / UTC 2020-06-02T05:38:27Z
FromStats_BitRate : 53
FromStats_Duration : 02:26:11.919000000
FromStats_FrameCount : 1825
FromStats_StreamSize : 58739





West Side Story (1961)


West Side Story (1961)


West Side Story (1961)


West Side Story (1961)


West Side Story (1961)