Tags
Language
Tags
February 2023
Su Mo Tu We Th Fr Sa
29 30 31 1 2 3 4
5 6 7 8 9 10 11
12 13 14 15 16 17 18
19 20 21 22 23 24 25
26 27 28 1 2 3 4

West Side Story (2021)

Posted By: Tavaz
1080p (FullHD) / BDRip IMDb
West Side Story (2021)

West Side Story (2021)
BDRip | MKV | 1920x1080 | English | H264 @ 5760 kbps | AC-3 @ 448 kbps | 2 h 36 min | 6.78 GiB
Subtitles: English
Genre: Crime, Drama, Musical, Romance

An adaptation of the 1957 musical, West Side Story explores forbidden love and the rivalry between the Jets and the Sharks, two teenage street gangs of different ethnic backgrounds.

West.Side.Story.2021.1080p.BluRay.x264-OFT.mkv (6.8 GB)



General
Unique ID : 202694696072817628298798972197116404810 (0x987D9416D70B0F0EBAC8B39BF671644A)
Complete name : ./West.Side.Story.2021.1080p.BluRay.x264-OFT.mkv
Format : Matroska
Format version : Version 4 / Version 2
File size : 6.78 GiB
Duration : 2 h 36 min
Overall bit rate : 6 207 kb/s
Movie name : West.Side.Story.2021.1080p.BluRay.x264-OFT
Encoded date : UTC 2022-02-24 21:00:15 / UTC 2022-02-24T19:16:13Z
Writing application : mkvmerge v47.0.0 ('Black Flag') 64-bit
Writing library : libebml v1.3.10 + libmatroska v1.5.2 / Lavf57.7.2

Video
ID : 1
Format : AVC
Format/Info : Advanced Video Codec
Format profile : High@L4
Format settings : CABAC / 4 Ref Frames
Format settings, CABAC : Yes
Format settings, RefFrames : 4 frames
Codec ID : V_MPEG4/ISO/AVC
Duration : 2 h 36 min
Bit rate : 5 760 kb/s
Width : 1 920 pixels
Height : 1 080 pixels
Display aspect ratio : 16:9
Frame rate mode : Constant
Frame rate : 23.976 (24000/1001) FPS
Color space : YUV
Chroma subsampling : 4:2:0
Bit depth : 8 bits
Scan type : Progressive
Bits/(Pixel*Frame) : 0.116
Stream size : 6.15 GiB (91%)
Writing library : x264 core 155 r2901 7d0ff22
Encoding settings : cabac=1 / ref=4 / deblock=1:-3:-3 / analyse=0x3:0x133 / me=umh / subme=9 / psy=1 / psy_rd=1.10:0.25 / mixed_ref=1 / me_range=32 / chroma_me=1 / trellis=2 / 8x8dct=1 / cqm=0 / deadzone=6,6 / fast_pskip=1 / chroma_qp_offset=-4 / threads=34 / lookahead_threads=3 / sliced_threads=0 / nr=0 / decimate=1 / interlaced=0 / bluray_compat=0 / constrained_intra=0 / bframes=6 / b_pyramid=2 / b_adapt=2 / b_bias=0 / direct=3 / weightb=1 / open_gop=0 / weightp=2 / keyint=240 / keyint_min=24 / scenecut=40 / intra_refresh=0 / rc_lookahead=40 / rc=2pass / mbtree=1 / bitrate=5760 / ratetol=1.0 / qcomp=0.60 / qpmin=0 / qpmax=69 / qpstep=4 / cplxblur=20.0 / qblur=0.5 / vbv_maxrate=20000 / vbv_bufsize=25000 / nal_hrd=none / filler=0 / ip_ratio=1.40 / aq=1:1.00
Language : English
Default : Yes
Forced : No
Color range : Limited
Color primaries : BT.709
Transfer characteristics : BT.709
Matrix coefficients : BT.709
Statistics Tags Issue : mkvmerge v47.0.0 ('Black Flag') 64-bit 2022-02-24 21:00:15 / mkvmerge v47.0.0 ('Black Flag') 64-bit 2022-02-24 21:00:15 / UTC 2022-02-24T19:16:13Z
FromStats_BitRate : 5756909
FromStats_Duration : 02:36:20.371000000
FromStats_FrameCount : 224904
FromStats_StreamSize : 6750243579

Audio
ID : 2
Format : AC-3
Format/Info : Audio Coding 3
Format settings, Endianness : Big
Codec ID : A_AC3
Duration : 2 h 36 min
Bit rate mode : Constant
Bit rate : 448 kb/s
Channel(s) : 6 channels
Channel positions : Front: L C R, Side: L R, LFE
Sampling rate : 48.0 kHz
Frame rate : 31.250 FPS (1536 SPF)
Bit depth : 16 bits
Compression mode : Lossy
Stream size : 501 MiB (7%)
Title : Surround
Language : English
Service kind : Complete Main
Default : Yes
Forced : No
Statistics Tags Issue : mkvmerge v47.0.0 ('Black Flag') 64-bit 2022-02-24 21:00:15 / mkvmerge v47.0.0 ('Black Flag') 64-bit 2022-02-24 21:00:15 / UTC 2022-02-24T19:16:13Z
FromStats_BitRate : 448000
FromStats_Duration : 02:36:20.352000000
FromStats_FrameCount : 293136
FromStats_StreamSize : 525299712

Text
ID : 3
Format : UTF-8
Codec ID : S_TEXT/UTF8
Codec ID/Info : UTF-8 Plain Text
Language : English
Default : Yes
Forced : No
Statistics Tags Issue : mkvmerge v47.0.0 ('Black Flag') 64-bit 2022-02-24 21:00:15 / mkvmerge v47.0.0 ('Black Flag') 64-bit 2022-02-24 21:00:15 / UTC 2022-02-24T19:16:13Z
FromStats_BitRate : 63
FromStats_Duration : 02:26:37.831000000
FromStats_FrameCount : 2433
FromStats_StreamSize : 69355

Menu
00:00:00.000 : :Chapter 1
00:07:34.162 : :Chapter 2
00:13:14.335 : :Chapter 3
00:16:45.171 : :Chapter 4
00:20:45.494 : :Chapter 5
00:25:04.962 : :Chapter 6
00:30:40.255 : :Chapter 7
00:35:07.147 : :Chapter 8
00:38:42.570 : :Chapter 9
00:43:52.213 : :Chapter 10
00:45:50.122 : :Chapter 11
00:48:53.305 : :Chapter 12
00:56:42.399 : :Chapter 13
01:03:14.457 : :Chapter 14
01:08:33.693 : :Chapter 15
01:20:01.755 : :Chapter 16
01:26:38.610 : :Chapter 17
01:33:58.925 : :Chapter 18
01:37:26.591 : :Chapter 19
01:46:58.287 : :Chapter 20
01:51:18.630 : :Chapter 21
01:59:52.352 : :Chapter 22
02:06:32.543 : :Chapter 23
02:18:32.137 : :Chapter 24
02:27:05.817 : :Chapter 25





West Side Story (2021)


West Side Story (2021)


West Side Story (2021)


West Side Story (2021)


West Side Story (2021)