Tags
Language
Tags
April 2024
Su Mo Tu We Th Fr Sa
31 1 2 3 4 5 6
7 8 9 10 11 12 13
14 15 16 17 18 19 20
21 22 23 24 25 26 27
28 29 30 1 2 3 4

BBC - Western Front (1999)

Posted By: Tutorial
BBC - Western Front (1999)

BBC - Western Front (1999)
DVDRip | 720 x 480 | .AVI/XviD @ 1823 Kbps | 6x~28mn | 2.02 GB
Audio: English AC-3 192 Kbps, 2 channels | Subs: None
Genre: Documentary, War

For most British people, the First World War was the Western Front, the trench line stretching from the Swiss Frontier to the North Sea. It was there that the majority of nearly nine million British and Dominion soldiers who enlisted during the war served, and where most of the 947,000 who were killed met their deaths. This detailed series covers everything from how the front was created and the experiences of the British Army in France, how the First World War was fought in trenches, forts and bunkers to the battle of Verdun and the last hundred days of the war. Professor Richard Holmes, the military historian, skilfully clarifies the complexities of the Western Front, highlighting the political, military and human dilemmas of this the most bitter and bloody of wars.
Part 1: Making the Front
Richard Holmes follows the route taken between August and December 1914 by the 100,000 men of the British Expeditionary Force as they went to fight the Germans in France.

Part 2: Feeding the Front
On April 22nd, the troops holding the Front were confronted with the first use of poison gas as a weapon of war. By the middle of 1915 over half of the 25,000 troops had been killed or badly wounded. Lord Kitchener's recruiting drive 'Your country needs you' prompted millions of young men to enlist. Veteran Robbie Burns, now 104, and Dick Trafford, now 102 recall the moment that they joined up. Dick also recalls the Battle of Loos where the British lost 8,000 men in an hour and Holmes relates the story of Rudyard Kipling's only son John who was among the reserves at Loos.

Part 3: Holding the Front
A visit to Verdun in France, scene of the first battle where artillery totally dominated the battlefield, leaving one million soldiers killed or wounded.

Part 4: Commanding the Front
Richard Holmes discusses the Battle of the Somme, which took place in northern France in 1916 and saw 60,000 British soldiers killed or wounded in a single day.

Part 5: Enduring the Front
The story of the ill-fated Nivelle offensive of 1917, in which French commander Robert Nivelle galvanised 750,000 troops in a lightning attack on the German defences, only for the heavy losses inflicted on the French to lead to mutiny in the ranks. Meanwhile, the British found themselves under pressure at the third battle of Ypres, also known as Passchendaele, where the atrocious weather turned the battleground into a muddy hell. Richard Holmes also looks at the underground warfare waged during the battle.

Part 6: Breaking the Front
In 1917 America joined the war against Germany, And Germany moved to finish the war quickly to their advantage. This programme examines Kaiserlacht (the Imperial Battle), the massive offensive launched by the German Army on 21st March 1918. It looks at how close Germany came to winning the war at this point, and the Allied counter-offensive that eventually led to victory and the German surrender.

also You can look my other last: World War I


General
Complete name : BBC.Western.Front.1of6.Making.The.Front.avi
Format : AVI
Format/Info : Audio Video Interleave
File size : 417 MiB
Duration : 28 min 45 s
Overall bit rate : 2 025 kb/s
Movie name : BBC.Western.Front.1of6.Making.The.Front.MVGroup.org.avi
Writing application : VirtualDubMod 1.5.10.2 (build 2542/release)
Writing library : VirtualDubMod build 2542/release

Video
ID : 0
Format : MPEG-4 Visual
Format profile : Advanced Simple@L5
Format settings, BVOP : 2
Format settings, QPel : Yes
Format settings, GMC : No warppoints
Format settings, Matrix : Custom
Codec ID : XVID
Codec ID/Hint : XviD
Duration : 28 min 45 s
Bit rate : 1 823 kb/s
Width : 720 pixels
Height : 480 pixels
Display aspect ratio : 3:2
Frame rate : 25.000 FPS
Color space : YUV
Chroma subsampling : 4:2:0
Bit depth : 8 bits
Scan type : Progressive
Compression mode : Lossy
Bits/(Pixel*Frame) : 0.211
Stream size : 375 MiB (90%)
Writing library : XviD 1.2.1 (UTC 2008-12-04)

Audio
ID : 1
Format : AC-3
Format/Info : Audio Coding 3
Format settings, Endianness : Big
Codec ID : 2000
Duration : 28 min 45 s
Bit rate mode : Constant
Bit rate : 192 kb/s
Channel(s) : 2 channels
Channel positions : Front: L R
Sampling rate : 48.0 kHz
Frame rate : 31.250 FPS (1536 spf)
Bit depth : 16 bits
Compression mode : Lossy
Stream size : 39.5 MiB (9%)
Alignment : Split accross interleaves
Interleave, duration : 40 ms (1.00 video frame)
Interleave, preload duration : 500 ms
Service kind : Complete Main
Screenshots

BBC - Western Front (1999)

BBC - Western Front (1999)

BBC - Western Front (1999)

BBC - Western Front (1999)

Welcome to my blog - daily update!