Tags
Language
Tags

Whale Wisdom (2019)

Posted By: notbanned
1080p (FullHD) / HDTV
Whale Wisdom (2019)

Whale Wisdom (2019)
HDTV | 1920x1080 | .MP4/AVC @ 5895 Kbps | 49 min 59 s | 2.12 GiB
Audio: English AAC 157 kbps, 2 channels | Subs: None
Genre: Documentary

Whales have long been a profound mystery to us. They live in a world so removed from our own that we can barely imagine their lives. Their environment is different, their senses are different, their relationships are different. How might such almost alien creatures see the world?

General
Complete name : Whale.Wisdom.2019.1080p.mp4
Format : MPEG-4
Format profile : Base Media
Codec ID : isom (isom/iso2/avc1/mp41)
File size : 2.12 GiB
Duration : 49 min 59 s
Overall bit rate mode : Variable
Overall bit rate : 6 061 kb/s

Video
ID : 1
Format : AVC
Format/Info : Advanced Video Codec
Format profile : High@L5
Format settings, CABAC : Yes
Format settings, ReFrames : 5 frames
Codec ID : avc1
Codec ID/Info : Advanced Video Coding
Duration : 49 min 59 s
Bit rate mode : Variable
Bit rate : 5 895 kb/s
Width : 1 920 pixels
Height : 1 080 pixels
Display aspect ratio : 16:9
Frame rate mode : Constant
Frame rate : 29.970 (30000/1001) FPS
Color space : YUV
Chroma subsampling : 4:2:0
Bit depth : 8 bits
Scan type : Progressive
Bits/(Pixel*Frame) : 0.095
Stream size : 2.06 GiB (97%)

Audio
ID : 2
Format : AAC
Format/Info : Advanced Audio Codec
Format profile : LC
Codec ID : 40
Duration : 49 min 59 s
Bit rate mode : Constant
Bit rate : 157 kb/s
Channel(s) : 2 channels
Channel positions : Front: L R
Sampling rate : 48.0 kHz
Frame rate : 46.875 FPS (1024 spf)
Compression mode : Lossy
Stream size : 56.3 MiB (3%)
Default : Yes
Alternate group : 1


Screenshots:

Whale Wisdom (2019)

Whale Wisdom (2019)

Whale Wisdom (2019)

Whale Wisdom (2019)