Tags
Language
Tags

What Makes a Woman? (2018)

Posted By: notbanned
1080p (FullHD) / HDTV IMDb
What Makes a Woman? (2018)

What Makes a Woman? (2018)
HDTV | 1920x1080 | .MKV/AVC @ 4123 Kbps | 46 min 50 s | 1.41 GiB
Audio: English MP2 192 kbps, 2 channels | Subs: None
Genre: Documentary

Transgender model and activist Munroe Bergdorf examines the changing world of gender and identity.

General
Unique ID : 312493841988763394541853597061867922436 (0xEB181FF11372583C18D399CF31886404)
Complete name : What.Makes.A.Woman.2018.1080p.mkv
Format : Matroska
Format version : Version 4 / Version 2
File size : 1.41 GiB
Duration : 46 min 50 s
Overall bit rate : 4 318 kb/s

Video
ID : 1
Format : AVC
Format/Info : Advanced Video Codec
Format profile : High@L4
Format settings, CABAC : Yes
Format settings, ReFrames : 4 frames
Codec ID : V_MPEG4/ISO/AVC
Duration : 46 min 50 s
Bit rate : 4 123 kb/s
Width : 1 920 pixels
Height : 1 080 pixels
Display aspect ratio : 16:9
Frame rate mode : Variable
Frame rate : 25.238 FPS
Original frame rate : 25.000 FPS
Standard : Component
Color space : YUV
Chroma subsampling : 4:2:0
Bit depth : 8 bits
Scan type : MBAFF
Scan type, store method : Separated fields
Scan order : Top Field First
Bits/(Pixel*Frame) : 0.079
Stream size : 1.35 GiB (96%)
Default : Yes
Forced : No
Color range : Limited
Color primaries : BT.709
Transfer characteristics : BT.709
Matrix coefficients : BT.709

Audio
ID : 2
Format : MPEG Audio
Format version : Version 1
Format profile : Layer 2
Codec ID : A_MPEG/L2
Codec ID/Hint : MP2
Duration : 46 min 50 s
Bit rate mode : Constant
Bit rate : 192 kb/s
Channel(s) : 2 channels
Sampling rate : 48.0 kHz
Frame rate : 41.667 FPS (1152 spf)
Compression mode : Lossy
Stream size : 64.3 MiB (4%)
Language : English
Default : Yes
Forced : No


Screenshots:

What Makes a Woman? (2018)

What Makes a Woman? (2018)

What Makes a Woman? (2018)