What Death Leaves Behind (2018)

Posted By: Without
1080p (FullHD) / WEB-DL IMDb
What Death Leaves Behind (2018)

What Death Leaves Behind (2018)
HDRip | MKV | 1 h 25 min | 1.28 GB | 720x320 | AVC@1985 kb/s | English AC3@192 kb/s, 2 ch
WEB-DL 1080p | MKV | 1 h 25 min | 2.89 GB | 1912x848 | AVC@4653 kb/s | English AC3@192 kb/s, 2 ch
Subs: English
Genre: Drama | Mystery | Thriller

After a kidney transplant, Jake Warren experiences reoccurring nightmares he believes to be visions of his donor's violent murder, sending him on a dark path of vengeance, leading to an unbearable truth.

IMDB - 2 wins & 1 nomination.


General
What.Death.Leaves.Behind.2018.HDRip.AC3.x264-CMRG.mkv
Format : Matroska
Format version : Version 4 / Version 2
File size : 1.28 GB
Duration : 1 h 25 min
Overall bit rate : 2140 kb/s
Movie name : What.Death.Leaves.Behind.2018.CMRG
Encoded date : UTC 2019-11-08 17:36:56
Writing application : mkvmerge v11.0.0 ('Alive') 64bit
Writing library : libebml v1.3.4 + libmatroska v1.4.5
Writing frontend : StaxRip v1.8.2.0

Video
ID : 1
Format : AVC
Format/Info : Advanced Video Codec
Format profile : High@L4.1
Format settings, CABAC : Yes
Format settings, ReFrames : 4 frames
Codec ID : V_MPEG4/ISO/AVC
Duration : 1 h 25 min
Bit rate : 1985 kb/s
Width : 720 pixels
Height : 320 pixels
Display aspect ratio : 2.25:1
Frame rate mode : Constant
Frame rate : 23.976 (24000/1001) FPS
Color space : YUV
Chroma subsampling : 4:2:0
Bit depth : 8 bits
Scan type : Progressive
Bits/(Pixel*Frame) : 0.359
Stream size : 1.16 GB (91%)
Writing library : x264 core 155 r2901 7d0ff22
Encoding settings : cabac=1 / ref=2 / deblock=1:0:0 / analyse=0x3:0x113 / me=hex / subme=6 / psy=1 / psy_rd=1.00:0.00 / mixed_ref=1 / me_range=16 / chroma_me=1 / trellis=1 / 8x8dct=1 / cqm=0 / deadzone=21,11 / fast_pskip=1 / chroma_qp_offset=-2 / threads=40 / lookahead_threads=2 / sliced_threads=0 / nr=0 / decimate=1 / interlaced=0 / bluray_compat=0 / constrained_intra=0 / bframes=3 / b_pyramid=2 / b_adapt=1 / b_bias=0 / direct=1 / weightb=1 / open_gop=0 / weightp=1 / keyint=250 / keyint_min=23 / scenecut=40 / intra_refresh=0 / rc_lookahead=30 / rc=abr / mbtree=1 / bitrate=1985 / ratetol=1.0 / qcomp=0.60 / qpmin=0 / qpmax=69 / qpstep=4 / ip_ratio=1.40 / aq=1:1.00
Default : Yes
Forced : No

Audio
ID : 2
Format : AC-3
Format/Info : Audio Coding 3
Mode extension : CM (complete main)
Format settings, Endianness : Big
Codec ID : A_AC3
Duration : 1 h 25 min
Bit rate mode : Constant
Bit rate : 192 kb/s
Channel(s) : 2 channels
Channel positions : Front: L R
Sampling rate : 48.0 kHz
Frame rate : 31.250 FPS (1536 spf)
Bit depth : 16 bits
Compression mode : Lossy
Stream size : 117 MB (9%)
Default : Yes
Forced : No

Text
ID : 3
Format : UTF-8
Codec ID : S_TEXT/UTF8
Codec ID/Info : UTF-8 Plain Text
Duration : 1 h 24 min
Bit rate : 74 b/s
Count of elements : 1243
Stream size : 45.9 KiB (0%)
Language : English
Default : Yes
Forced : No

Menu
00:00:00.000 : en:1
00:02:17.000 : en:2
00:09:38.000 : en:3
00:20:47.000 : en:4
00:30:39.000 : en:5
00:40:52.000 : en:6
00:50:04.000 : en:7
01:00:05.000 : en:8
01:11:41.000 : en:9
01:21:08.000 : en:10


General
What.Death.Leaves.Behind.2018.1080p.WEB-DL.H264.AC3-EVO.mkv
Format : Matroska
Format version : Version 4 / Version 2
File size : 2.89 GB
Duration : 1 h 25 min
Overall bit rate : 4846 kb/s
Encoded date : UTC 2019-11-08 17:07:51
Writing application : mkvmerge v35.0.0 ('All The Love In The World') 64-bit
Writing library : libebml v1.3.9 + libmatroska v1.5.2

Video
ID : 3
Format : AVC
Format/Info : Advanced Video Codec
Format profile : High@L4
Format settings, CABAC : Yes
Format settings, ReFrames : 5 frames
Codec ID : V_MPEG4/ISO/AVC
Duration : 1 h 25 min
Bit rate : 4653 kb/s
Width : 1912 pixels
Height : 848 pixels
Display aspect ratio : 2.25:1
Frame rate mode : Constant
Frame rate : 23.976 FPS
Color space : YUV
Chroma subsampling : 4:2:0
Bit depth : 8 bits
Scan type : Progressive
Bits/(Pixel*Frame) : 0.120
Stream size : 2.78 GB (96%)
Language : English
Default : Yes
Forced : No
Color range : Limited
Color primaries : BT.709
Transfer characteristics : BT.709
Matrix coefficients : BT.709

Audio
ID : 2
Format : AC-3
Format/Info : Audio Coding 3
Mode extension : CM (complete main)
Format settings, Endianness : Big
Codec ID : A_AC3
Duration : 1 h 25 min
Bit rate mode : Constant
Bit rate : 192 kb/s
Channel(s) : 2 channels
Channel positions : Front: L R
Sampling rate : 48.0 kHz
Frame rate : 31.250 FPS (1536 spf)
Bit depth : 16 bits
Compression mode : Lossy
Stream size : 117 MB (4%)
Default : Yes
Forced : No

Text
ID : 1
Format : UTF-8
Codec ID : S_TEXT/UTF8
Codec ID/Info : UTF-8 Plain Text
Duration : 1 h 24 min
Bit rate : 74 b/s
Count of elements : 1243
Stream size : 45.9 KiB (0%)
Language : English
Default : Yes
Forced : No

Menu
00:00:00.000 : en:1
00:02:17.000 : en:2
00:09:38.000 : en:3
00:20:47.000 : en:4
00:30:39.000 : en:5
00:40:52.000 : en:6
00:50:04.000 : en:7
01:00:05.000 : en:8
01:11:41.000 : en:9
01:21:08.000 : en:10



HDRip Screenshots

What Death Leaves Behind (2018)

What Death Leaves Behind (2018)

What Death Leaves Behind (2018)


WEB-DL 1080p Screenshots

What Death Leaves Behind (2018)

What Death Leaves Behind (2018)

What Death Leaves Behind (2018)


Come Visit My Blog (•‿•)