Tags
Language
Tags
February 2023
Su Mo Tu We Th Fr Sa
29 30 31 1 2 3 4
5 6 7 8 9 10 11
12 13 14 15 16 17 18
19 20 21 22 23 24 25
26 27 28 1 2 3 4

Als Hitler das rosa Kaninchen stahl / When Hitler Stole Pink Rabbit (2019)

Posted By: Without
1080p (FullHD) / BDRip IMDb
Als Hitler das rosa Kaninchen stahl / When Hitler Stole Pink Rabbit (2019)

Als Hitler das rosa Kaninchen stahl / When Hitler Stole Pink Rabbit (2019)
BDRip | MKV | 1 h 59 min | 716 MB | 720x300 | AVC@695 kb/s | Deutsch AAC@144 kb/s, 2 ch
BDRip 720p | MKV | 1 h 59 min | 3.54 GB | 1280x534 | AVC@3567 kb/s | Deutsch AC3@640 kb/s, 6 ch
BDRip 1080p | MKV | 1 h 59 min | 10.9 GB | 1920x800 | AVC@9218 kb/s | Deutsch DTS-HD MA@3840 kb/s
Subs: English, Deutsch, Français
Genre: Biography, Drama, Family, History, War

A Jewish family had to flee from the Nazis from Berlin. First, they flee to Zurich. From there it goes to Paris and finally to London.



General
when.hitler.stole.pink.rabbit.2019.bdrip.x264-bipolar.mkv
Format : Matroska
Format version : Version 4 / Version 2
File size : 716 MB
Duration : 1 h 59 min
Overall bit rate : 841 kb/s
Encoded date : UTC 2022-10-24 16:40:56
Writing application : mkvmerge v8.5.1 ('Where you lead I will follow') 64bit
Writing library : libebml v1.3.3 + libmatroska v1.4.4

Video
ID : 1
Format : AVC
Format/Info : Advanced Video Codec
Format profile : High@L3.1
Format settings, CABAC : Yes
Format settings, ReFrames : 16 frames
Codec ID : V_MPEG4/ISO/AVC
Duration : 1 h 59 min
Bit rate : 695 kb/s
Width : 720 pixels
Height : 300 pixels
Display aspect ratio : 2.40:1
Frame rate mode : Constant
Frame rate : 23.976 (24000/1001) FPS
Color space : YUV
Chroma subsampling : 4:2:0
Bit depth : 8 bits
Scan type : Progressive
Bits/(Pixel*Frame) : 0.134
Stream size : 592 MB (83%)
Writing library : x264 core 164 r3101 b093bbe
Encoding settings : cabac=1 / ref=16 / deblock=1:-3:-3 / analyse=0x3:0x133 / me=umh / subme=10 / psy=1 / psy_rd=1.00:0.15 / mixed_ref=1 / me_range=24 / chroma_me=1 / trellis=2 / 8x8dct=1 / cqm=0 / deadzone=21,11 / fast_pskip=1 / chroma_qp_offset=-3 / threads=9 / lookahead_threads=1 / sliced_threads=0 / nr=0 / decimate=1 / interlaced=0 / bluray_compat=0 / constrained_intra=0 / bframes=8 / b_pyramid=2 / b_adapt=2 / b_bias=0 / direct=3 / weightb=1 / open_gop=0 / weightp=2 / keyint=240 / keyint_min=24 / scenecut=40 / intra_refresh=0 / rc_lookahead=60 / rc=crf / mbtree=1 / crf=19.0 / qcomp=0.60 / qpmin=0 / qpmax=69 / qpstep=4 / ip_ratio=1.40 / aq=3:0.70
Language : English
Default : Yes
Forced : No
Color range : Limited
Matrix coefficients : BT.709

Audio
ID : 2
Format : AAC
Format/Info : Advanced Audio Codec
Format profile : LC
Codec ID : A_AAC
Duration : 1 h 59 min
Bit rate : 144 kb/s
Channel(s) : 2 channels
Channel positions : Front: L R
Sampling rate : 48.0 kHz
Frame rate : 46.875 FPS (1024 spf)
Compression mode : Lossy
Delay relative to video : 9 ms
Stream size : 122 MB (17%)
Language : German
Default : Yes
Forced : No

Text #1
ID : 3
Format : UTF-8
Codec ID : S_TEXT/UTF8
Codec ID/Info : UTF-8 Plain Text
Duration : 1 h 58 min
Bit rate : 50 b/s
Count of elements : 1410
Stream size : 43.9 KiB (0%)
Title : English
Language : English
Default : Yes
Forced : Yes

Text #2
ID : 4
Format : UTF-8
Codec ID : S_TEXT/UTF8
Codec ID/Info : UTF-8 Plain Text
Duration : 1 h 58 min
Bit rate : 51 b/s
Count of elements : 1325
Stream size : 44.1 KiB (0%)
Title : French
Language : French
Default : No
Forced : No

Text #3
ID : 5
Format : UTF-8
Codec ID : S_TEXT/UTF8
Codec ID/Info : UTF-8 Plain Text
Duration : 1 h 17 min
Bit rate : 6 b/s
Count of elements : 116
Stream size : 3.42 KiB (0%)
Title : German forced
Language : German
Default : No
Forced : No

Text #4
ID : 6
Format : UTF-8
Codec ID : S_TEXT/UTF8
Codec ID/Info : UTF-8 Plain Text
Duration : 1 h 52 min
Bit rate : 60 b/s
Count of elements : 1437
Stream size : 49.5 KiB (0%)
Title : German
Language : German
Default : No
Forced : No

Text #5
ID : 7
Format : UTF-8
Codec ID : S_TEXT/UTF8
Codec ID/Info : UTF-8 Plain Text
Duration : 1 h 52 min
Bit rate : 65 b/s
Count of elements : 1539
Stream size : 53.9 KiB (0%)
Title : German SDH
Language : German
Default : No
Forced : No

Menu
00:00:00.000 : en:00:00:00.000
00:09:09.466 : en:00:09:09.466
00:20:23.597 : en:00:20:23.597
00:29:07.037 : en:00:29:07.037
00:37:18.695 : en:00:37:18.695
00:45:42.907 : en:00:45:42.907
00:55:39.670 : en:00:55:39.670
01:05:31.344 : en:01:05:31.344
01:17:52.710 : en:01:17:52.710
01:28:10.577 : en:01:28:10.577
01:40:14.383 : en:01:40:14.383
01:47:49.713 : en:01:47:49.713


General
when.hitler.stole.pink.rabbit.2019.720p.bluray.x264-usury.mkv
Format : Matroska
Format version : Version 4 / Version 2
File size : 3.54 GB
Duration : 1 h 59 min
Overall bit rate : 4263 kb/s
Encoded date : UTC 2022-10-24 16:43:26
Writing application : mkvmerge v8.5.1 ('Where you lead I will follow') 64bit
Writing library : libebml v1.3.3 + libmatroska v1.4.4

Video
ID : 1
Format : AVC
Format/Info : Advanced Video Codec
Format profile : High@L4.1
Format settings, CABAC : Yes
Format settings, ReFrames : 12 frames
Codec ID : V_MPEG4/ISO/AVC
Duration : 1 h 59 min
Bit rate : 3567 kb/s
Width : 1280 pixels
Height : 534 pixels
Display aspect ratio : 2.40:1
Frame rate mode : Constant
Frame rate : 23.976 (24000/1001) FPS
Color space : YUV
Chroma subsampling : 4:2:0
Bit depth : 8 bits
Scan type : Progressive
Bits/(Pixel*Frame) : 0.218
Stream size : 2.97 GB (84%)
Writing library : x264 core 164 r3101 b093bbe
Encoding settings : cabac=1 / ref=12 / deblock=1:-3:-3 / analyse=0x3:0x133 / me=umh / subme=10 / psy=1 / psy_rd=1.00:0.15 / mixed_ref=1 / me_range=24 / chroma_me=1 / trellis=2 / 8x8dct=1 / cqm=0 / deadzone=21,11 / fast_pskip=1 / chroma_qp_offset=-3 / threads=17 / lookahead_threads=2 / sliced_threads=0 / nr=0 / decimate=1 / interlaced=0 / bluray_compat=0 / constrained_intra=0 / bframes=8 / b_pyramid=2 / b_adapt=2 / b_bias=0 / direct=3 / weightb=1 / open_gop=0 / weightp=2 / keyint=250 / keyint_min=23 / scenecut=40 / intra_refresh=0 / rc_lookahead=60 / rc=crf / mbtree=1 / crf=16.0 / qcomp=0.60 / qpmin=0 / qpmax=69 / qpstep=4 / ip_ratio=1.40 / aq=3:0.70
Language : English
Default : Yes
Forced : No

Audio
ID : 2
Format : AC-3
Format/Info : Audio Coding 3
Mode extension : CM (complete main)
Format settings, Endianness : Big
Codec ID : A_AC3
Duration : 1 h 59 min
Bit rate mode : Constant
Bit rate : 640 kb/s
Channel(s) : 6 channels
Channel positions : Front: L C R, Side: L R, LFE
Sampling rate : 48.0 kHz
Frame rate : 31.250 FPS (1536 spf)
Bit depth : 16 bits
Compression mode : Lossy
Stream size : 545 MB (15%)
Language : German
Default : Yes
Forced : No

Text #1
ID : 3
Format : UTF-8
Codec ID : S_TEXT/UTF8
Codec ID/Info : UTF-8 Plain Text
Duration : 1 h 58 min
Bit rate : 50 b/s
Count of elements : 1410
Stream size : 43.9 KiB (0%)
Title : English
Language : English
Default : Yes
Forced : Yes

Text #2
ID : 4
Format : PGS
Muxing mode : zlib
Codec ID : S_HDMV/PGS
Codec ID/Info : Picture based subtitle format used on BDs/HD-DVDs
Duration : 1 h 58 min
Bit rate : 16.9 kb/s
Count of elements : 2820
Stream size : 14.2 MB (0%)
Title : English
Language : English
Default : No
Forced : No

Text #3
ID : 5
Format : UTF-8
Codec ID : S_TEXT/UTF8
Codec ID/Info : UTF-8 Plain Text
Duration : 1 h 58 min
Bit rate : 51 b/s
Count of elements : 1325
Stream size : 44.1 KiB (0%)
Title : French
Language : French
Default : No
Forced : No

Text #4
ID : 6
Format : PGS
Muxing mode : zlib
Codec ID : S_HDMV/PGS
Codec ID/Info : Picture based subtitle format used on BDs/HD-DVDs
Duration : 1 h 58 min
Bit rate : 16.0 kb/s
Count of elements : 2650
Stream size : 13.5 MB (0%)
Title : French
Language : French
Default : No
Forced : No

Text #5
ID : 7
Format : UTF-8
Codec ID : S_TEXT/UTF8
Codec ID/Info : UTF-8 Plain Text
Duration : 1 h 17 min
Bit rate : 6 b/s
Count of elements : 116
Stream size : 3.42 KiB (0%)
Title : German forced
Language : German
Default : No
Forced : No

Text #6
ID : 8
Format : PGS
Muxing mode : zlib
Codec ID : S_HDMV/PGS
Codec ID/Info : Picture based subtitle format used on BDs/HD-DVDs
Duration : 1 h 17 min
Bit rate : 2056 b/s
Count of elements : 232
Stream size : 1.14 MB (0%)
Title : German forced
Language : German
Default : No
Forced : No

Text #7
ID : 9
Format : UTF-8
Codec ID : S_TEXT/UTF8
Codec ID/Info : UTF-8 Plain Text
Duration : 1 h 52 min
Bit rate : 60 b/s
Count of elements : 1437
Stream size : 49.5 KiB (0%)
Title : German
Language : German
Default : No
Forced : No

Text #8
ID : 10
Format : UTF-8
Codec ID : S_TEXT/UTF8
Codec ID/Info : UTF-8 Plain Text
Duration : 1 h 52 min
Bit rate : 65 b/s
Count of elements : 1539
Stream size : 53.9 KiB (0%)
Title : German SDH
Language : German
Default : No
Forced : No

Text #9
ID : 11
Format : PGS
Muxing mode : zlib
Codec ID : S_HDMV/PGS
Codec ID/Info : Picture based subtitle format used on BDs/HD-DVDs
Duration : 1 h 52 min
Bit rate : 21.4 kb/s
Count of elements : 3078
Stream size : 17.2 MB (0%)
Title : German SDH
Language : German
Default : No
Forced : No

Menu
00:00:00.000 : en:00:00:00.000
00:09:09.466 : en:00:09:09.466
00:20:23.597 : en:00:20:23.597
00:29:07.037 : en:00:29:07.037
00:37:18.695 : en:00:37:18.695
00:45:42.907 : en:00:45:42.907
00:55:39.670 : en:00:55:39.670
01:05:31.344 : en:01:05:31.344
01:17:52.710 : en:01:17:52.710
01:28:10.577 : en:01:28:10.577
01:40:14.383 : en:01:40:14.383
01:47:49.713 : en:01:47:49.713


General
when.hitler.stole.pink.rabbit.2019.1080p.bluray.x264-usury.mkv
Format : Matroska
Format version : Version 4 / Version 2
File size : 10.9 GB
Duration : 1 h 59 min
Overall bit rate : 13.1 Mb/s
Encoded date : UTC 2022-10-24 16:47:04
Writing application : mkvmerge v8.5.1 ('Where you lead I will follow') 64bit
Writing library : libebml v1.3.3 + libmatroska v1.4.4

Video
ID : 1
Format : AVC
Format/Info : Advanced Video Codec
Format profile : High@L4.1
Format settings, CABAC : Yes
Format settings, ReFrames : 5 frames
Codec ID : V_MPEG4/ISO/AVC
Duration : 1 h 59 min
Bit rate : 9218 kb/s
Width : 1920 pixels
Height : 800 pixels
Display aspect ratio : 2.40:1
Frame rate mode : Constant
Frame rate : 23.976 (24000/1001) FPS
Color space : YUV
Chroma subsampling : 4:2:0
Bit depth : 8 bits
Scan type : Progressive
Bits/(Pixel*Frame) : 0.250
Stream size : 7.66 GB (70%)
Writing library : x264 core 164 r3101 b093bbe
Encoding settings : cabac=1 / ref=5 / deblock=1:-3:-3 / analyse=0x3:0x133 / me=umh / subme=10 / psy=1 / psy_rd=1.00:0.15 / mixed_ref=1 / me_range=24 / chroma_me=1 / trellis=2 / 8x8dct=1 / cqm=0 / deadzone=21,11 / fast_pskip=1 / chroma_qp_offset=-3 / threads=18 / lookahead_threads=3 / sliced_threads=0 / nr=0 / decimate=1 / interlaced=0 / bluray_compat=0 / constrained_intra=0 / bframes=8 / b_pyramid=2 / b_adapt=2 / b_bias=0 / direct=3 / weightb=1 / open_gop=0 / weightp=2 / keyint=250 / keyint_min=23 / scenecut=40 / intra_refresh=0 / rc_lookahead=60 / rc=crf / mbtree=1 / crf=16.0 / qcomp=0.60 / qpmin=0 / qpmax=69 / qpstep=4 / ip_ratio=1.40 / aq=3:0.70
Language : English
Default : Yes
Forced : No

Audio
ID : 2
Format : DTS
Format/Info : Digital Theater Systems
Format profile : MA / Core
Mode : 16
Format settings, Endianness : Big
Codec ID : A_DTS
Duration : 1 h 59 min
Bit rate mode : Variable / Constant
Bit rate : 3840 kb/s / 1509 kb/s
Channel(s) : 6 channels
Channel positions : Front: L C R, Side: L R, LFE
Sampling rate : 48.0 kHz
Frame rate : 93.750 FPS (512 spf)
Bit depth : 24 bits
Compression mode : Lossless / Lossy
Stream size : 3.20 GB (29%)
Language : German
Default : Yes
Forced : No

Text #1
ID : 3
Format : UTF-8
Codec ID : S_TEXT/UTF8
Codec ID/Info : UTF-8 Plain Text
Duration : 1 h 58 min
Bit rate : 50 b/s
Count of elements : 1410
Stream size : 43.9 KiB (0%)
Title : English
Language : English
Default : Yes
Forced : Yes

Text #2
ID : 4
Format : PGS
Muxing mode : zlib
Codec ID : S_HDMV/PGS
Codec ID/Info : Picture based subtitle format used on BDs/HD-DVDs
Duration : 1 h 58 min
Bit rate : 16.9 kb/s
Count of elements : 2820
Stream size : 14.2 MB (0%)
Title : English
Language : English
Default : No
Forced : No

Text #3
ID : 5
Format : UTF-8
Codec ID : S_TEXT/UTF8
Codec ID/Info : UTF-8 Plain Text
Duration : 1 h 58 min
Bit rate : 51 b/s
Count of elements : 1325
Stream size : 44.1 KiB (0%)
Title : French
Language : French
Default : No
Forced : No

Text #4
ID : 6
Format : PGS
Muxing mode : zlib
Codec ID : S_HDMV/PGS
Codec ID/Info : Picture based subtitle format used on BDs/HD-DVDs
Duration : 1 h 58 min
Bit rate : 16.0 kb/s
Count of elements : 2650
Stream size : 13.5 MB (0%)
Title : French
Language : French
Default : No
Forced : No

Text #5
ID : 7
Format : UTF-8
Codec ID : S_TEXT/UTF8
Codec ID/Info : UTF-8 Plain Text
Duration : 1 h 17 min
Bit rate : 6 b/s
Count of elements : 116
Stream size : 3.42 KiB (0%)
Title : German forced
Language : German
Default : No
Forced : No

Text #6
ID : 8
Format : PGS
Muxing mode : zlib
Codec ID : S_HDMV/PGS
Codec ID/Info : Picture based subtitle format used on BDs/HD-DVDs
Duration : 1 h 17 min
Bit rate : 2056 b/s
Count of elements : 232
Stream size : 1.14 MB (0%)
Title : German forced
Language : German
Default : No
Forced : No

Text #7
ID : 9
Format : UTF-8
Codec ID : S_TEXT/UTF8
Codec ID/Info : UTF-8 Plain Text
Duration : 1 h 52 min
Bit rate : 60 b/s
Count of elements : 1437
Stream size : 49.5 KiB (0%)
Title : German
Language : German
Default : No
Forced : No

Text #8
ID : 10
Format : UTF-8
Codec ID : S_TEXT/UTF8
Codec ID/Info : UTF-8 Plain Text
Duration : 1 h 52 min
Bit rate : 65 b/s
Count of elements : 1539
Stream size : 53.9 KiB (0%)
Title : German SDH
Language : German
Default : No
Forced : No

Text #9
ID : 11
Format : PGS
Muxing mode : zlib
Codec ID : S_HDMV/PGS
Codec ID/Info : Picture based subtitle format used on BDs/HD-DVDs
Duration : 1 h 52 min
Bit rate : 21.4 kb/s
Count of elements : 3078
Stream size : 17.2 MB (0%)
Title : German SDH
Language : German
Default : No
Forced : No

Menu
00:00:00.000 : en:00:00:00.000
00:09:09.466 : en:00:09:09.466
00:20:23.597 : en:00:20:23.597
00:29:07.037 : en:00:29:07.037
00:37:18.695 : en:00:37:18.695
00:45:42.907 : en:00:45:42.907
00:55:39.670 : en:00:55:39.670
01:05:31.344 : en:01:05:31.344
01:17:52.710 : en:01:17:52.710
01:28:10.577 : en:01:28:10.577
01:40:14.383 : en:01:40:14.383
01:47:49.713 : en:01:47:49.713



BDRip Screenshots

Als Hitler das rosa Kaninchen stahl / When Hitler Stole Pink Rabbit (2019)

Als Hitler das rosa Kaninchen stahl / When Hitler Stole Pink Rabbit (2019)

Als Hitler das rosa Kaninchen stahl / When Hitler Stole Pink Rabbit (2019)


BDRip 720p Screenshots

Als Hitler das rosa Kaninchen stahl / When Hitler Stole Pink Rabbit (2019)

Als Hitler das rosa Kaninchen stahl / When Hitler Stole Pink Rabbit (2019)

Als Hitler das rosa Kaninchen stahl / When Hitler Stole Pink Rabbit (2019)


BDRip 1080p Screenshots

Als Hitler das rosa Kaninchen stahl / When Hitler Stole Pink Rabbit (2019)

Als Hitler das rosa Kaninchen stahl / When Hitler Stole Pink Rabbit (2019)

Als Hitler das rosa Kaninchen stahl / When Hitler Stole Pink Rabbit (2019)


Come Visit My Blog (•‿•)