Whisky: The Islay Edition (2011)

Posted By: Polik88
Whisky: The Islay Edition (2011)

Whisky: The Islay Edition (2011)
BDRip | English | MKV (H264) 24.000 fps 7000 Kbps | 1280x720 | AC3 640 Kbps 48.0 khz | 1h 2mn | 3.29 GB
Genre: Documentary

"WHISKY: the Islay edition" is part of a series about the magic of the golden liquid called whisky. The first documentary directed by Olav Verhoeven takes us to a small Scottish island called Islay. It is the home of 8 world famous whisky distilleries. Whisky consists mainly of peat, water, barley and most importantly, it is made by people. All of these ingredients are found on the Islay island. This island close to Ireland is 25 miles long and has a wide variety of landscapes, animals and historic sites.
The complete process of making whisky is divided in 8 parts. The different distilleries represent each a part of this process. The 8 world famous distilleries are (in order of appearance): Ardbeg, Kilchoman, Bowmore, Bunnahabhain, Caol Ila, Laphroaig, Lagavulin and Bruichladdich. Each distillery has its own distinguished style of making whisky.
The story gives us an overview of how the 8 distilleries operate, how whisky is made, the history behind it, how to do a whisky tasting and of course the magical island of Islay itself.
General
Complete name : whisky.the.islay.edition.2011.mkv
Format : Matroska
Format version : Version 4 / Version 2
File size : 3.29 GiB
Duration : 1h 2mn
Overall bit rate : 7 534 Kbps
Encoded date : UTC 2013-02-12 16:35:18
Writing application : mkvmerge v6.0.0 ('Coming Up For Air') built on Jan 20 2013 09:52:00
Writing library : libebml v1.3.0 + libmatroska v1.4.0

Video
ID : 1
Format : AVC
Format/Info : Advanced Video Codec
Format profile : High@L4.1
Format settings, CABAC : Yes
Format settings, ReFrames : 5 frames
Codec ID : V_MPEG4/ISO/AVC
Duration : 1h 2mn
Bit rate : 7 000 Kbps
Width : 1 280 pixels
Height : 720 pixels
Display aspect ratio : 16:9
Frame rate : 24.000 fps
Color space : YUV
Chroma subsampling : 4:2:0
Bit depth : 8 bits
Scan type : Progressive
Bits/(Pixel*Frame) : 0.316
Stream size : 2.94 GiB (90%)
Writing library : x264 core 129 r2230 1cffe9f
Encoding settings : cabac=1 / ref=5 / deblock=1:-3:-3 / analyse=0x3:0x113 / me=umh / subme=9 / psy=1 / psy_rd=1.00:0.00 / mixed_ref=1 / me_range=32 / chroma_me=1 / trellis=2 / 8x8dct=1 / cqm=0 / deadzone=21,11 / fast_pskip=1 / chroma_qp_offset=-2 / threads=16 / lookahead_threads=2 / sliced_threads=0 / nr=0 / decimate=1 / interlaced=0 / bluray_compat=0 / constrained_intra=0 / bframes=3 / b_pyramid=2 / b_adapt=1 / b_bias=0 / direct=1 / weightb=1 / open_gop=0 / weightp=2 / keyint=240 / keyint_min=24 / scenecut=40 / intra_refresh=0 / rc_lookahead=60 / rc=abr / mbtree=1 / bitrate=7000 / ratetol=1.0 / qcomp=0.60 / qpmin=0 / qpmax=69 / qpstep=4 / ip_ratio=1.40 / aq=1:1.00
Language : English
Default : Yes
Forced : No

Audio
ID : 2
Format : AC-3
Format/Info : Audio Coding 3
Mode extension : CM (complete main)
Format settings, Endianness : Big
Codec ID : A_AC3
Duration : 1h 2mn
Bit rate mode : Constant
Bit rate : 640 Kbps
Channel(s) : 6 channels
Channel positions : Front: L C R, Side: L R, LFE
Sampling rate : 48.0 KHz
Bit depth : 16 bits
Compression mode : Lossy
Stream size : 286 MiB (8%)
Language : English
Default : Yes
Forced : No

Text #1
ID : 3
Format : VobSub
Codec ID : S_VOBSUB
Codec ID/Info : The same subtitle format used on DVDs
Language : English
Default : No
Forced : No

Screenshots

Whisky: The Islay Edition (2011)

Whisky: The Islay Edition (2011)

Whisky: The Islay Edition (2011)

Whisky: The Islay Edition (2011)

Whisky: The Islay Edition (2011)

no mirrors please, Follow The Rules
Visit Polik88 Blog Here
no password