PBS - NOVA S40E09 Who Killed Lindbergh's Baby (2013)

Posted By: ParRus
PBS - NOVA S40E09 Who Killed Lindbergh's Baby (2013)

PBS - NOVA S40E09 Who Killed Lindbergh's Baby (2013)
HDTV | English | MKV | 1280 x 720 | AVC ~2776 Kbps | 29.970 fps
AC-3 | 192 kbps | 48.0 KHz | 2 channels | 00:52:10 | 1.1 GB
Genre: Documentary

NOVA is reopening one of the most confounding crime mysteries of all time as a team of expert investigators employs state-of-the-art forensic and behavioral science techniques in an effort to determine what really happened to Charles Lindbergh's baby… and why.
General
Complete name : Who Killed Lindbergh's Baby.mkv
Format : Matroska
Format version : Version 2
File size : 1.10 GiB
Duration : 52mn 10s
Overall bit rate : 3 028 Kbps
Encoded date : UTC 2013-01-31 13:10:25
Writing application : mkvmerge v3.1.0 ('Happy up here') built on Jan 19 2010 12:09:24
Writing library : libebml v0.7.9 + libmatroska v0.8.1
Video #1
ID : 1
Format : AVC
Format/Info : Advanced Video Codec
Format profile : High@L4.1
Format settings, CABAC : Yes
Format settings, ReFrames : 8 frames
Codec ID : V_MPEG4/ISO/AVC
Duration : 52mn 10s
Bit rate : 2 776 Kbps
Width : 1 280 pixels
Height : 720 pixels
Display aspect ratio : 16:9
Frame rate : 29.970 fps
Color space : YUV
Chroma subsampling : 4:2:0
Bit depth : 8 bits
Scan type : Progressive
Bits/(Pixel*Frame) : 0.101
Stream size : 1.01 GiB (92%)
Writing library : x264 core 129 r2245 bc13772
Encoding settings : cabac=1 / ref=8 / deblock=1:0:0 / analyse=0x3:0x113 / me=umh / subme=9 / psy=1 / psy_rd=1.00:0.00 / mixed_ref=1 / me_range=16 / chroma_me=1 / trellis=1 / 8x8dct=1 / cqm=0 / deadzone=21,11 / fast_pskip=1 / chroma_qp_offset=-2 / threads=18 / lookahead_threads=3 / sliced_threads=0 / nr=0 / decimate=1 / interlaced=0 / bluray_compat=0 / constrained_intra=0 / bframes=3 / b_pyramid=2 / b_adapt=2 / b_bias=0 / direct=3 / weightb=1 / open_gop=0 / weightp=2 / keyint=250 / keyint_min=25 / scenecut=40 / intra_refresh=0 / rc_lookahead=50 / rc=crf / mbtree=1 / crf=20.0 / qcomp=0.60 / qpmin=0 / qpmax=69 / qpstep=4 / ip_ratio=1.40 / aq=1:1.00
Language : English
Audio #2
ID : 2
Format : AC-3
Format/Info : Audio Coding 3
Mode extension : CM (complete main)
Codec ID : A_AC3
Duration : 52mn 10s
Bit rate mode : Constant
Bit rate : 192 Kbps
Channel(s) : 2 channels
Channel positions : Front: L R
Sampling rate : 48.0 KHz
Bit depth : 16 bits
Compression mode : Lossy
Stream size : 71.6 MiB (6%)

ScreenShots

PBS - NOVA S40E09 Who Killed Lindbergh's Baby (2013)

PBS - NOVA S40E09 Who Killed Lindbergh's Baby (2013)

PBS - NOVA S40E09 Who Killed Lindbergh's Baby (2013)

PBS - NOVA S40E09 Who Killed Lindbergh's Baby (2013)

For more, Visit my AH-blog

no mirrors please, Follow The Rules