Tags
Language
Tags

PBS Nova - Who Killed the Red Baron? (2003)

Posted By: Tutorial
1080p (FullHD) / HDTV
PBS Nova - Who Killed the Red Baron? (2003)

PBS Nova - Who Killed the Red Baron? (2003)
HDTV | 1920 x 1080 | .MKV/AVC @ 3382 Kbps | 53 min 43 s | 1.41 GB
Audio: English AC-3 384 Kbps, 6 channels | Subs: English
Genre: Documentary

On April 21, 1918, during one of the bloodiest battles of World War I, Manfred von Richthofen took off in his bright red Fokker triplane on what was to be his final mission. The legendary Red Baron plunged into a furious dogfight against Allied fighters, and was last seen hotly pursuing a Sopwith Camel deep into Allied territory. What happened next has been debated and disputed for more than 80 years. The triplane landed roughly in a field with the famous ace, who had an astounding 80 kills to his name, shot dead through the chest by a single bullet. But who was the triggerman who downed the Red Baron?
Since that fateful day, many have received or claimed credit for the Red Baron's demise. But now, with the help of modern forensics and recently discovered eyewitness accounts, NOVA discloses a probable new identity for his killer.
Featuring state-of-the-art animation and vivid aerial footage of original and replica fighters re-enacting the ferocious dogfights of World War I, NOVA cracks one of the most puzzling of all aviation mysteries. Along the way, NOVA also reveals the extraordinary story of how World War I air combat advanced from a gentlemanly sport to a grim and deadly science in just four short years.

General
Unique ID : 311371018296483878666171035305267089733 (0xEA3FE075A5B185C0DC3BC0E0BC66D145)
Complete name : PBS.NOVA.Who.Killed.the.Red.Baron.mkv
Format : Matroska
Format version : Version 4 / Version 2
File size : 1.41 GiB
Duration : 53 min 43 s
Overall bit rate : 3 770 kb/s
Encoded date : UTC 2019-02-07 21:31:19
Writing application : mkvmerge v30.1.0 ('Forever And More') 64-bit
Writing library : libebml v1.3.6 + libmatroska v1.4.9

Video
ID : 1
Format : AVC
Format/Info : Advanced Video Codec
Format profile : High@L4
Format settings, CABAC : Yes
Format settings, ReFrames : 4 frames
Codec ID : V_MPEG4/ISO/AVC
Duration : 53 min 43 s
Bit rate : 3 382 kb/s
Width : 1 920 pixels
Height : 1 080 pixels
Display aspect ratio : 16:9
Frame rate mode : Constant
Frame rate : 29.970 (30000/1001) FPS
Color space : YUV
Chroma subsampling : 4:2:0
Bit depth : 8 bits
Scan type : Progressive
Bits/(Pixel*Frame) : 0.054
Stream size : 1.27 GiB (90%)
Writing library : x264 core 152 r2854 e9a5903
Encoding settings : cabac=1 / ref=3 / deblock=1:0:0 / analyse=0x3:0x133 / me=hex / subme=11 / psy=1 / psy_rd=2.00:1.10 / mixed_ref=1 / me_range=16 / chroma_me=1 / trellis=2 / 8x8dct=1 / cqm=0 / deadzone=21,11 / fast_pskip=1 / chroma_qp_offset=-4 / threads=12 / lookahead_threads=1 / sliced_threads=0 / nr=2 / decimate=1 / interlaced=0 / bluray_compat=0 / constrained_intra=0 / bframes=3 / b_pyramid=2 / b_adapt=1 / b_bias=0 / direct=1 / weightb=1 / open_gop=0 / weightp=2 / keyint=250 / keyint_min=25 / scenecut=40 / intra_refresh=0 / rc_lookahead=40 / rc=2pass / mbtree=1 / bitrate=3382 / ratetol=1.0 / qcomp=0.60 / qpmin=10 / qpmax=51 / qpstep=4 / cplxblur=20.0 / qblur=0.5 / ip_ratio=1.40 / aq=1:1.00
Default : Yes
Forced : No

Audio
ID : 2
Format : AC-3
Format/Info : Audio Coding 3
Format settings, Endianness : Big
Codec ID : A_AC3
Duration : 53 min 43 s
Bit rate mode : Constant
Bit rate : 384 kb/s
Channel(s) : 6 channels
Channel positions : Front: L C R, Side: L R, LFE
Sampling rate : 48.0 kHz
Frame rate : 31.250 FPS (1536 spf)
Bit depth : 16 bits
Compression mode : Lossy
Delay relative to video : 64 ms
Stream size : 148 MiB (10%)
Language : English
Service kind : Complete Main
Default : Yes
Forced : No

Text
ID : 3
Format : UTF-8
Codec ID : S_TEXT/UTF8
Codec ID/Info : UTF-8 Plain Text
Duration : 53 min 41 s
Bit rate : 117 b/s
Count of elements : 934
Stream size : 46.4 KiB (0%)
Default : Yes
Forced : No
Screenshots

PBS Nova - Who Killed the Red Baron? (2003)

PBS Nova - Who Killed the Red Baron? (2003)

Welcome to my blog - daily update!

PBS Nova - Who Killed the Red Baron? (2003)