Tags
Language
Tags

Widows' Peak (1994)

Posted By: Tavaz
1080p (FullHD) / WEB-DL IMDb
Widows' Peak (1994)

Widows' Peak (1994)
WEB-DL | MKV | 1920x1080 | English | H264 @ 12067 kbps | E-AC-3 @ 224 kbps | 1 h 41 min | 8.70 GiB
Subtitles: English
Genre: Comedy, Mystery, Thriller, Romance

Scandal and mystery reign following the arrival of Edwina in a small Irish town populated entirely by widows. Edwina quickly falls out with the locals while also falling in with the son of the community's leader

Widows.Peak.1994.1080p.AMZN.WEB-DL.DDP2.0.H.264-ABM.mkv (8.7 GB)



General
Unique ID : 182628810252813537136959770493577432824 (0x896507893520F67181CE9961DF558EF8)
Complete name : ./Widows.Peak.1994.1080p.AMZN.WEB-DL.DDP2.0.H.264-ABM.mkv
Format : Matroska
Format version : Version 4 / Version 2
File size : 8.70 GiB
Duration : 1 h 41 min
Overall bit rate mode : Variable
Overall bit rate : 12.3 Mb/s
Encoded date : UTC 2018-06-30 18:01:14
Writing application : mkvmerge v13.0.0 ('The Juggler') 64bit
Writing library : libebml v1.3.4 + libmatroska v1.4.5

Video
ID : 1
Format : AVC
Format/Info : Advanced Video Codec
Format profile : High@L4
Format settings : CABAC / 4 Ref Frames
Format settings, CABAC : Yes
Format settings, RefFrames : 4 frames
Codec ID : V_MPEG4/ISO/AVC
Duration : 1 h 41 min
Bit rate mode : Variable
Bit rate : 12.1 Mb/s
Maximum bit rate : 15.0 Mb/s
Width : 1 920 pixels
Height : 1 080 pixels
Display aspect ratio : 16:9
Frame rate mode : Constant
Frame rate : 23.976 (24000/1001) FPS
Color space : YUV
Chroma subsampling : 4:2:0
Bit depth : 8 bits
Scan type : Progressive
Bits/(Pixel*Frame) : 0.243
Stream size : 8.54 GiB (98%)
Default : Yes
Forced : No
Color range : Limited
Color primaries : BT.709
Transfer characteristics : BT.709
Matrix coefficients : BT.709

Audio
ID : 2
Format : E-AC-3
Format/Info : Enhanced Audio Coding 3
Format settings, Endianness : Big
Codec ID : A_EAC3
Duration : 1 h 41 min
Bit rate mode : Constant
Bit rate : 224 kb/s
Channel(s) : 2 channels
Channel positions : Front: L R
Sampling rate : 48.0 kHz
Frame rate : 187.500 FPS (256 SPF)
Compression mode : Lossy
Stream size : 162 MiB (2%)
Language : English
Service kind : Complete Main
Default : Yes
Forced : No

Text #1
ID : 3
Format : UTF-8
Codec ID : S_TEXT/UTF8
Codec ID/Info : UTF-8 Plain Text
Duration : 1 h 39 min
Bit rate : 72 b/s
Count of elements : 1895
Stream size : 52.4 KiB (0%)
Language : English
Default : No
Forced : No

Text #2
ID : 4
Format : UTF-8
Codec ID : S_TEXT/UTF8
Codec ID/Info : UTF-8 Plain Text
Duration : 1 h 39 min
Bit rate : 73 b/s
Count of elements : 1944
Stream size : 53.2 KiB (0%)
Title : SDH
Language : English
Default : No
Forced : No





Widows' Peak (1994)


Widows' Peak (1994)


Widows' Peak (1994)


Widows' Peak (1994)


Widows' Peak (1994)