Tags
Language
Tags

ITV - Wild China with Ray Mears Series 1 Part 1 Beijing and the Great Wall (2021)

Posted By: Tutorial
1080p (FullHD) / HDTV
ITV - Wild China with Ray Mears Series 1 Part 1 Beijing and the Great Wall (2021)

ITV - Wild China with Ray Mears Series 1 Part 1 Beijing and the Great Wall (2021)
HDTV | 1920 x 1080 | .MP4/AVC @ 4465 Kbps | 22 min 21 s | 741 MB
Audio: English AAC 161 Kbps, 2 channels | Subs: English
Genre: Documentary

The presenter explores the dramatic landscapes and wildlife of China, beginning in Beijing, where he visits the Beijing Raptor Rescue Centre and releases an owl back into the wild. He also learns about unusual looking deer, and joins world expert Dr Lindesay on the Great Wall of China.

General
Complete name : Wild.China.with.Ray.Mears.Series.1.Part1.Beijing.and.the.Great.Wall.mp4
Format : MPEG-4
Format profile : Base Media
Codec ID : isom (isom/iso2/avc1/mp41)
File size : 741 MiB
Duration : 22 min 21 s
Overall bit rate mode : Variable
Overall bit rate : 4 633 kb/s
Movie name : Wild.China.with.Ray.Mears.Series.1.Part1.Beijing.and.the.Great.Wall.1080p.HDTV.x264.AAC..org
Performer : VideoProc
Genre : Video
Writing application : Lavf58.29.100
Comment : Wild.China.with.Ray.Mears.Series.1.Part1.Beijing.and.the.Great.Wall.1080p.HDTV.x264.AAC..org

Video
ID : 1
Format : AVC
Format/Info : Advanced Video Codec
Format profile : Main@L4
Format settings : CABAC / 3 Ref Frames
Format settings, CABAC : Yes
Format settings, RefFrames : 3 frames
Codec ID : avc1
Codec ID/Info : Advanced Video Coding
Duration : 22 min 21 s
Bit rate : 4 465 kb/s
Width : 1 920 pixels
Height : 1 080 pixels
Display aspect ratio : 16:9
Frame rate mode : Constant
Frame rate : 25.000 FPS
Color space : YUV
Chroma subsampling : 4:2:0
Bit depth : 8 bits
Scan type : Progressive
Bits/(Pixel*Frame) : 0.086
Stream size : 714 MiB (96%)
Language : English

Audio
ID : 2
Format : AAC
Format/Info : Advanced Audio Codec
Format profile : LC
Codec ID : mp4a-40-2
Duration : 22 min 21 s
Bit rate mode : Constant
Bit rate : 161 kb/s
Channel(s) : 2 channels
Channel positions : Front: L R
Sampling rate : 48.0 kHz
Frame rate : 46.875 FPS (1024 SPF)
Compression mode : Lossy
Stream size : 25.8 MiB (3%)
Language : English
Default : Yes
Alternate group : 1

Text
ID : 3
Format : Timed Text
Muxing mode : sbtl
Codec ID : tx3g
Duration : 22 min 0 s
Bit rate mode : Variable
Bit rate : 100 b/s
Stream size : 16.1 KiB (0%)
Language : Avestan
Default : Yes
Forced : No
Alternate group : 3
Screenshots

ITV - Wild China with Ray Mears Series 1 Part 1 Beijing and the Great Wall (2021)

ITV - Wild China with Ray Mears Series 1 Part 1 Beijing and the Great Wall (2021)

ITV - Wild China with Ray Mears Series 1 Part 1 Beijing and the Great Wall (2021)

Welcome to my blog - daily update!
ITV - Wild China with Ray Mears Series 1 Part 1 Beijing and the Great Wall (2021)