Tags
Language
Tags

NG. - Wildlife: Resurrection Island (2018)

Posted By: notbanned
720p (HD) / HDTV
NG. - Wildlife: Resurrection Island (2018)

NG. - Wildlife: Resurrection Island (2018)
HDTV | 1280x720 | .MKV/AVC @ 4055 Kbps | 43 min 59 s | 1.36 GiB
Audio: English AC3 384 kbps, 2 channels | Subs: None
Genre: Documentary

In 2018, National Geographic wildlife filmmaker Bertie Gregory takes audiences on an adventure to the iconic South Georgia Island. Sailing through the roughest ocean on the planet in a 50ft sailboat, the teams target is the sub-Antarctic island renowned for its 9000ft glaciated mountains that erupt straight up out of the ocean. Together with its breathtaking scenery, this island now claims one of the highest concentration of wildlife on the planet. Bertie gets closer than ever before to capture the challenges faced by the 4 toughest animals that call this place home. The sass, teamwork, endurance, and uncanny city living that are all part of this extreme environment are brought to life. But this is more than just a straight natural history show. From Captain Cooks discovery of the island to the now abandoned whaling settlements, this island presents the very best and worst in our own human nature.

General
Unique ID : 263069672462974154656270722022128372934 (0xC5E9603F490F516097BE19B2C4564CC6)
Complete name : Wild.Life.Resurrection.Island.2018.720p.mkv
Format : Matroska
Format version : Version 4 / Version 2
File size : 1.36 GiB
Duration : 43 min 59 s
Overall bit rate : 4 441 kb/s

Video
ID : 1
Format : AVC
Format/Info : Advanced Video Codec
Format profile : High@L4.1
Format settings, CABAC : Yes
Format settings, ReFrames : 5 frames
Codec ID : V_MPEG4/ISO/AVC
Duration : 43 min 59 s
Bit rate : 4 055 kb/s
Width : 1 280 pixels
Height : 720 pixels
Display aspect ratio : 16:9
Frame rate mode : Constant
Frame rate : 25.000 FPS
Color space : YUV
Chroma subsampling : 4:2:0
Bit depth : 8 bits
Scan type : Progressive
Bits/(Pixel*Frame) : 0.176
Stream size : 1.25 GiB (91%)
Writing library : x264 core 159 r2991 1771b55
Encoding settings : cabac=1 / ref=5 / deblock=1:-2:-2 / analyse=0x3:0x113 / me=hex / subme=8 / psy=1 / psy_rd=1.00:0.00 / mixed_ref=1 / me_range=16 / chroma_me=1 / trellis=2 / 8x8dct=1 / cqm=0 / deadzone=21,11 / fast_pskip=1 / chroma_qp_offset=-2 / threads=12 / lookahead_threads=2 / sliced_threads=0 / nr=0 / decimate=1 / interlaced=0 / bluray_compat=0 / constrained_intra=0 / bframes=3 / b_pyramid=2 / b_adapt=1 / b_bias=0 / direct=3 / weightb=1 / open_gop=0 / weightp=2 / keyint=250 / keyint_min=25 / scenecut=40 / intra_refresh=0 / rc_lookahead=50 / rc=crf / mbtree=1 / crf=20.0 / qcomp=0.60 / qpmin=0 / qpmax=69 / qpstep=4 / ip_ratio=1.40 / aq=1:1.00
Language : English
Default : Yes
Forced : No

Audio
ID : 2
Format : AC-3
Format/Info : Audio Coding 3
Format settings, Endianness : Big
Codec ID : A_AC3
Duration : 43 min 59 s
Bit rate mode : Constant
Bit rate : 384 kb/s
Channel(s) : 2 channels
Channel positions : Front: L R
Sampling rate : 48.0 kHz
Frame rate : 31.250 FPS (1536 spf)
Bit depth : 16 bits
Compression mode : Lossy
Stream size : 121 MiB (9%)
Language : English
Service kind : Complete Main
Default : Yes
Forced : No


Screenshots:

NG. - Wildlife: Resurrection Island (2018)

NG. - Wildlife: Resurrection Island (2018)

NG. - Wildlife: Resurrection Island (2018)

NG. - Wildlife: Resurrection Island (2018)