Smithsonian Earth - Wild Wild East Series 1: Migration (2017)

Posted By: notbanned
1080p (FullHD) / HDTV
Smithsonian Earth - Wild Wild East Series 1: Migration (2017)

Smithsonian Earth - Wild Wild East Series 1: Migration (2017)
HDTV | 1920x1080 | .MP4/AVC @ 5650 Kbps | 24 min 3 s | 1000 MiB
Audio: English AAC 160 kbps, 2 channels | Subs: English
Genre: Documentary

Whether it's a humpback whale guiding a calf on an 8,000-mile journey to the Bay of Fundy, or the long aerial journeys of Canada geese heading north to nest, some of the world's greatest migrations count the east coast of Canada along their route. Join us as we peek into the lives of these peripatetic protagonists.

General
Complete name : Wild.Wild.East.Series.1.Migration.1080p.mp4
Format : MPEG-4
Format profile : Base Media
Codec ID : isom (isom)
File size : 1 000 MiB
Duration : 24 min 3 s
Overall bit rate mode : Variable
Overall bit rate : 5 813 kb/s

Video
ID : 1
Format : AVC
Format/Info : Advanced Video Codec
Format profile : High@L4.1
Format settings, CABAC : No
Format settings, ReFrames : 1 frame
Format settings, GOP : M=1, N=12
Codec ID : avc1
Codec ID/Info : Advanced Video Coding
Duration : 24 min 3 s
Bit rate : 5 650 kb/s
Maximum bit rate : 30.0 Mb/s
Width : 1 920 pixels
Height : 1 080 pixels
Display aspect ratio : 16:9
Frame rate mode : Constant
Frame rate : 23.976 (24000/1001) FPS
Color space : YUV
Chroma subsampling : 4:2:0
Bit depth : 8 bits
Scan type : Progressive
Bits/(Pixel*Frame) : 0.114
Stream size : 972 MiB (97%)
Encoded date : UTC 2018-12-05 13:38:17
Tagged date : UTC 2018-12-05 14:36:35

Audio
ID : 2
Format : AAC
Format/Info : Advanced Audio Codec
Format profile : LC
Codec ID : 40
Duration : 24 min 3 s
Bit rate mode : Variable
Bit rate : 160 kb/s
Maximum bit rate : 208 kb/s
Channel(s) : 2 channels
Channel positions : Front: L R
Sampling rate : 48.0 kHz
Frame rate : 46.875 FPS (1024 spf)
Compression mode : Lossy
Stream size : 27.5 MiB (3%)
Encoded date : UTC 2018-12-05 14:36:31
Tagged date : UTC 2018-12-05 14:36:35

Text
ID : 3
Format : Timed Text
Codec ID : tx3g
Duration : 23 min 56 s
Bit rate mode : Variable
Bit rate : 73 b/s
Stream size : 12.7 KiB (0%)
Forced : No
Encoded date : UTC 2018-12-05 14:36:35
Tagged date : UTC 2018-12-05 14:36:35


Screenshots:

Smithsonian Earth - Wild Wild East Series 1: Migration (2017)

Smithsonian Earth - Wild Wild East Series 1: Migration (2017)

Smithsonian Earth - Wild Wild East Series 1: Migration (2017)

Smithsonian Earth - Wild Wild East Series 1: Migration (2017)