Wild West Alaska S01E05 - The Salmon Are Running and Hans Needs a Date (2013)

Posted By: vivid23
Wild West Alaska S01E05 - The Salmon Are Running and Hans Needs a Date  (2013)

Wild West Alaska S01E05 - The Salmon Are Running and Hans Needs a Date (2013)
HDTV | 1280x720 | MKV/x264 @ 4418 Kbps | 41mn | Audio: English AC3 384 kbps, 6 channels | Subs: None | 1.42 GB
Genre: Documentary

Ken ushers his pal Hans into the 21st century by introducing him to the world of online dating - Alaska style. Jim's skill and patience are put to the test when he agrees to guide Phred and her friend deep into the wilds of Alaska.

More info

Video
ID : 1
Format : AVC
Format/Info : Advanced Video Codec
Format profile : High@L4.1
Format settings, CABAC : Yes
Format settings, ReFrames : 5 frames
Codec ID : V_MPEG4/ISO/AVC
Duration : 41mn 31s
Bit rate : 4 418 Kbps
Width : 1 280 pixels
Height : 720 pixels
Display aspect ratio : 16:9
Frame rate : 29.970 fps
Color space : YUV
Chroma subsampling : 4:2:0
Bit depth : 8 bits
Scan type : Progressive
Bits/(Pixel*Frame) : 0.160
Stream size : 1.28 GiB (90%)
Writing library : x264 core 129 r2245 bc13772
Encoding settings : cabac=1 / ref=5 / deblock=1:0:0 / analyse=0x3:0x113 / me=umh / subme=8 / psy=1 / psy_rd=1.00:0.00 / mixed_ref=1 / me_range=16 / chroma_me=1 / trellis=1 / 8x8dct=1 / cqm=0 / deadzone=21,11 / fast_pskip=1 / chroma_qp_offset=-2 / threads=6 / lookahead_threads=1 / sliced_threads=0 / nr=0 / decimate=1 / interlaced=0 / bluray_compat=0 / constrained_intra=0 / bframes=3 / b_pyramid=2 / b_adapt=2 / b_bias=0 / direct=3 / weightb=1 / open_gop=0 / weightp=2 / keyint=250 / keyint_min=25 / scenecut=40 / intra_refresh=0 / rc_lookahead=50 / rc=crf / mbtree=1 / crf=21.0 / qcomp=0.60 / qpmin=0 / qpmax=69 / qpstep=4 / ip_ratio=1.40 / aq=1:1.00

Audio
ID : 2
Format : AC-3
Format/Info : Audio Coding 3
Mode extension : CM (complete main)
Codec ID : A_AC3
Duration : 41mn 31s
Bit rate mode : Constant
Bit rate : 384 Kbps
Channel(s) : 6 channels
Channel positions : Front: L C R, Side: L R, LFE
Sampling rate : 48.0 KHz
Bit depth : 16 bits
Compression mode : Lossy
Stream size : 114 MiB (8%)


Wild West Alaska S01E05 - The Salmon Are Running and Hans Needs a Date  (2013)

Wild West Alaska S01E05 - The Salmon Are Running and Hans Needs a Date  (2013)


Feel free to contact me when links are dead