Tags
Language
Tags

Blue Ant Media - Wildlife Icons: Series 1 (2021)

Posted By: Tutorial
1080p (FullHD) / HDTV
Blue Ant Media - Wildlife Icons: Series 1 (2021)

Blue Ant Media - Wildlife Icons: Series 1 (2021)
HDTV | 1920 x 1080 | .MP4/AVC @ 4500 Kbps | 8x~46mn | 12.0 GB
Audio: English AAC 161 Kbps, 2 channels | Subs: English
Genre: Documentary

A number of iconic species call the vast biodiversity of Africa home. From close-knit communities of hamadryas baboons to graceful herds of springbok, get a closer look at the some of the remarkable wildlife within the continent's mighty ecosystem

Part 1: Savanna Life
Covering more than 12 million square miles, the savanna is a vast biome that makes up almost half of Africa's surface. But this iconic landscape is also a living, breathing system of diverse plant and animal species. Witness the dynamic forces of nature that control this thriving ecosystem's circle of life


Part 2: Meet the Meerkats
Meerkats may be tiny and adorable, but they're also fierce survivalists who hunt their prey and trick their predators. Follow one family living in the hostile environment of the Namib Desert


Part 3: Dung Beetle: Nature's Recycler
As a creature that thrives on waste, the dung beetle is easy to dismiss. But it's actually a key player in the Serengeti's ecosystem, recycling the flow of energy to fuel the lives of every animal on the plains-from the smallest herbivore to the largest predator. Marvel at one of the Serengeti's hardest workers, in all its determined glory


Part 4: Africa's Big Cats
Covering nearly 8,000 square miles of diverse habitats, South Africa's Kruger National Park is home to an abundance of wildlife, many among them predators. Get a closer look at lions, leopards, and cheetahs–three feline species with different, but equally deadly, hunting techniques that have propelled them to the top of the food chain.


Part 5: Africa's Big Five
With few exceptions, impala and springbok almost never live in the same habitat, and yet these herd grazers share a surprising amount of common traits, like broad eating habits and impressive agility. Follow the life cycles of these hardy antelopes across the wilds of southern Africa


Part 6: Springbok & Impala: Life in the Herd
With few exceptions, impala and springbok almost never live in the same habitat, and yet these herd grazers share a surprising amount of common traits, like broad eating habits and impressive agility. Follow the life cycles of these hardy antelopes across the wilds of southern Africa.


Part 7: The Hamadryas of Awash
The hamadryas baboons of Ethiopia's Awash National Park are resourceful, resilient, and, in the case of their resident alpha male, strict enforcers of the clan’s social hierarchy. Peer into the world of this hardy primate as a troop heads down from their cliff homes to an oasis at the heart of the desert, on a challenging daily forage for food.


Part 8: Life in the Leftovers
The hunting habits of lions and hyenas create a domino effect on the savanna that sustains many animals along the food chain. Learn how tenacious vultures, nocturnal jackals, and even tiny carrion beetles feast once apex predators have had their fill of the kill.

General
Complete name : Wildlife.Icons.Series.1.Part.1.Savanna.Life.mp4
Format : MPEG-4
Format profile : Base Media
Codec ID : isom (isom)
File size : 1.51 GiB
Duration : 46 min 23 s
Overall bit rate mode : Variable
Overall bit rate : 4 647 kb/s
Encoded date : UTC 2021-03-14 09:59:02
Tagged date : UTC 2021-03-14 09:59:02
Writing application : My MP4Box GUI 0.6.0.6 <http://my-mp4box-gui.zymichost.com>

Video
ID : 1
Format : AVC
Format/Info : Advanced Video Codec
Format profile : High@L4
Format settings : CABAC / 2 Ref Frames
Format settings, CABAC : Yes
Format settings, Reference frames : 2 frames
Format settings, GOP : M=2, N=48
Codec ID : avc1
Codec ID/Info : Advanced Video Coding
Duration : 46 min 23 s
Bit rate mode : Constant
Bit rate : 4 500 kb/s
Maximum bit rate : 9 117 kb/s
Width : 1 920 pixels
Height : 1 080 pixels
Display aspect ratio : 16:9
Frame rate mode : Variable
Frame rate : 23.976 (24000/1001) FPS
Minimum frame rate : 23.810 FPS
Maximum frame rate : 24.390 FPS
Color space : YUV
Chroma subsampling : 4:2:0
Bit depth : 8 bits
Scan type : Progressive
Bits/(Pixel*Frame) : 0.091
Stream size : 1.45 GiB (96%)
Title : Wildlife.Icons.Series.1.Part.1.Savanna.Life.1080p.HDTV.x264.AAC..org.mp4
Language : English
Tagged date : UTC 2021-03-14 10:00:06
Codec configuration box : avcC

Audio
ID : 2
Format : AAC LC
Format/Info : Advanced Audio Codec Low Complexity
Codec ID : mp4a-40-2
Duration : 46 min 23 s
Bit rate mode : Variable
Bit rate : 161 kb/s
Maximum bit rate : 178 kb/s
Channel(s) : 2 channels
Channel layout : L R
Sampling rate : 48.0 kHz
Frame rate : 46.875 FPS (1024 SPF)
Compression mode : Lossy
Stream size : 53.3 MiB (3%)
Title : Wildlife.Icons.Series.1.Part.1.Savanna.Life.1080p.HDTV.x264.AAC..org.mp4
Language : English
Encoded date : UTC 2021-03-14 09:59:45
Tagged date : UTC 2021-03-14 10:00:06

Text #1
ID : 3
Format : Timed Text
Codec ID : tx3g
Duration : 46 min 13 s
Bit rate mode : Variable
Bit rate : 84 b/s
Stream size : 28.4 KiB (0%)
Title : Wildlife.Icons.Series.1.Part.1.Savanna.Life.1080p.HDTV.x264.AAC..org.srt
Forced : No
Encoded date : UTC 2021-03-14 10:00:06
Tagged date : UTC 2021-03-14 10:00:06

Text #2
ID : 1-CC1
Format : EIA-608
Muxing mode : SCTE 128 / DTVCC Transport
Muxing mode, more info : Muxed in Video #1
Duration : 46 min 23 s
Bit rate mode : Constant
Stream size : 0.00 Byte (0%)
CaptionServiceName : CC1
Screenshots

Blue Ant Media - Wildlife Icons: Series 1 (2021)

Blue Ant Media - Wildlife Icons: Series 1 (2021)

Blue Ant Media - Wildlife Icons: Series 1 (2021)

Welcome to my blog - daily update!

Blue Ant Media - Wildlife Icons: Series 1 (2021)