William Shatner's Gonzo Ballet (2009)

Posted By: notbanned
720p (HD) / WEB-DL IMDb
William Shatner's Gonzo Ballet (2009)

William Shatner's Gonzo Ballet (2009)
WEB-DL | 1280x720 | .MKV/AVC @ 5280 Kbps | 50 min 42 s | 1.95 GiB
Audio: English EAC3 224 kbps, 2 channels | Subs: English
Genre: Documentary

On a cold night in Milwaukee high art meets pop culture as award winning choreographer Margo Sappington (OH! CALCUTTA!, BILLBOARDS) premieres her latest ballet, "Common People", set to the music of William Shatner and Ben Folds from their album, Has Been. GONZO BALLET explores the genesis of this unique artistic collaboration by fusing the music, poetry, and dance of "Common People" with interviews of the creators, dancers, and audience members.

General
Unique ID : 139032219688554366299469404143467015564 (0x6898A1AADAB983EA8871E1904FFEAD8C)
Complete name : William.Shatners.Gonzo.Ballet.2009.720p.mkv
Format : Matroska
Format version : Version 4 / Version 2
File size : 1.95 GiB
Duration : 50 min 42 s
Overall bit rate : 5 507 kb/s

Video
ID : 1
Format : AVC
Format/Info : Advanced Video Codec
Format profile : High@L3.1
Format settings, CABAC : Yes
Format settings, ReFrames : 4 frames
Codec ID : V_MPEG4/ISO/AVC
Duration : 50 min 42 s
Bit rate mode : Constant
Bit rate : 5 280 kb/s
Nominal bit rate : 6 000 kb/s
Width : 1 280 pixels
Height : 720 pixels
Display aspect ratio : 16:9
Frame rate mode : Constant
Frame rate : 29.970 (30000/1001) FPS
Color space : YUV
Chroma subsampling : 4:2:0
Bit depth : 8 bits
Scan type : Progressive
Bits/(Pixel*Frame) : 0.191
Stream size : 1.87 GiB (96%)
Default : Yes
Forced : No
Color range : Limited
Color primaries : BT.709
Transfer characteristics : BT.709
Matrix coefficients : BT.709

Audio
ID : 2
Format : E-AC-3
Format/Info : Enhanced Audio Coding 3
Format settings, Endianness : Big
Codec ID : A_EAC3
Duration : 50 min 42 s
Bit rate mode : Constant
Bit rate : 224 kb/s
Channel(s) : 2 channels
Channel positions : Front: L R
Sampling rate : 48.0 kHz
Frame rate : 187.500 FPS (256 spf)
Compression mode : Lossy
Stream size : 81.3 MiB (4%)
Language : English
Service kind : Complete Main
Default : Yes
Forced : No

Text #1
ID : 3
Format : UTF-8
Codec ID : S_TEXT/UTF8
Codec ID/Info : UTF-8 Plain Text
Duration : 50 min 11 s
Bit rate : 87 b/s
Count of elements : 966
Stream size : 32.3 KiB (0%)
Language : English
Default : No
Forced : No

Text #2
ID : 4
Format : UTF-8
Codec ID : S_TEXT/UTF8
Codec ID/Info : UTF-8 Plain Text
Duration : 50 min 31 s
Bit rate : 88 b/s
Count of elements : 980
Stream size : 32.8 KiB (0%)
Title : SDH
Language : English
Default : No
Forced : No


Screenshots:

William Shatner's Gonzo Ballet (2009)

William Shatner's Gonzo Ballet (2009)

William Shatner's Gonzo Ballet (2009)

William Shatner's Gonzo Ballet (2009)